<svg xmlns="http://www.w3.org/2000/svg">
<defs>
<font
        id="FontID0"
        horiz-origin-x="0"
        horiz-origin-y="0"
        style="stroke-width:50.003;font-weight:400"
        vert-origin-x="0"
        horiz-adv-x="0"
        vert-origin-y="0"
        class="str1"
        vert-adv-y="0"
        font-variant="small-caps,normal"
        font-weight="400"
      >
	<font-face
          id="font-face7"
          font-family="Chow Fun"
        >
	</font-face
      >
   <missing-glyph
          id="missing-glyph9"
        ><path
            id="path11"
            d="m0 0z"
        /></missing-glyph
      >
   <glyph
          id="glyph13"
          horiz-adv-x="255"
          unicode=","
        ><path
            id="path15"
            d="m216 35.008c0-78.024-45.319-140.67-135.99-188.01 22.642 41.988 33.981 84.331 33.981 126.99 0 52.016-20.976 89.682-63 113l132.02 63c22.004-33.307 32.988-71.646 32.988-114.98z"
        /></glyph
      >
   <glyph
          id="glyph17"
          horiz-adv-x="309"
          unicode=" "
      />
   <glyph
          id="glyph19"
          horiz-adv-x="327"
          unicode="-"
        ><path
            id="path21"
            d="m18.992 340l291 10.016-9.9922-84.001c-108.66 0-202.68-13.677-282-41.008l0.99213 114.99z"
        /></glyph
      >
   <glyph
          id="glyph23"
          horiz-adv-x="679"
          unicode="6"
        ><path
            id="path25"
            d="m666 269.01c0-127.35-55.347-191.01-165.99-191.01-30 0-57.686 3-83.008 9.0001 56.008 86.009 84.001 159 84.001 219 0 32.008-9.3308 60.166-27.992 84.497-18.685 24.331-43.678 36.496-75.001 36.496-29.339 0-67.678-9.0001-115.02-27l45 89.009c35.339 16.654 70.678 24.992 106.02 24.992 66.662 0 121.98-24 165.99-72.001 43.985-48 66-105.66 66-172.99zm-48 436l-97.016-74.008c-31.323 49.347-74.977 74.008-130.98 74.008-60 0-105-41.339-135-124.02-21.992-60-33-126.99-33-200.98 0-90.686 18.992-168.69 57-234 45.992-78.686 111-118.02 195-118.02 22.654 0 40.985 4.6772 54.993 14.008-24-48.662-70.654-72.993-139.98-72.993-86.67 0-167.01 37.323-241.02 111.99-73.985 74.67-111 156-111 243.99 0 128.67 29.339 237 88.016 325 67.323 101.34 162.33 152.01 285 152.01 83.316 0 152.65-32.339 207.99-96.993z"
        /></glyph
      >
   <glyph
          id="glyph27"
          horiz-adv-x="613"
          unicode="7"
        ><path
            id="path29"
            d="m658 772l-60-74.008c-20.008 6-47.339 9.0001-81.993 9.0001-144.66 0-306.33-57.662-485.01-172.99l68.008 208.99c99.332 37.347 213 56.008 341.01 56.008 76.654 0 149.32-9.0001 217.99-27zm-96.993-111c-67.347-94.654-124.68-208.99-171.99-343-44.008-124.68-73.678-249-89.009-373l-186.99 51.992c18 111.99 61.654 230.01 130.98 354 64.678 114 140.34 214.66 227.01 301.99l90.001 8.0079z"
        /></glyph
      >
   <glyph
          id="glyph31"
          horiz-adv-x="789"
          unicode="4"
        ><path
            id="path33"
            d="m792.01 212.01l-112.02-30v66.993c34.677 0 72.001 9.9922 112.02 30v-66.993zm-120-224.01l-192.99-45c-2.6693 25.323-4.0158 58.678-4.0158 99.993 0 209.34 30.992 414.66 93.001 616l81.993 45c-9.9922-79.985-15-175.66-15-286.99 0-157.35 12.354-300.33 37.016-429zm-7.0158 865l-15-81.993c-79.985-44.008-156.33-112.02-228.99-204-66-82.678-118.98-171.33-159-266.01 12-25.984 66.662-45.662 164.01-58.985v-105c-14.669-3.3307-35.339-5.0079-62.008-5.0079-89.339 0-205.32 18.992-348 57 62.008 136.66 151.68 265.66 269.01 387 120 123.33 246.66 215.67 379.99 276.99z"
        /></glyph
      >
   <glyph
          id="glyph35"
          horiz-adv-x="726"
          unicode="0"
        ><path
            id="path37"
            d="m715 479.01c0-35.339-1.6536-61.678-5.0079-79.016l-3.9922-21.992-2.0079-5.0079-0.99213 1.0158c-3.9922-78.001-41.008-166.68-111-266.01l-126.99 3c48 56.008 72.001 161.01 72.001 315 0 82.654-16.347 152.34-48.992 208.99-40.016 69.355-98.339 104.01-175.02 104.01-31.984 0-66-6.6615-102-20.008 31.347 65.339 87.662 98.009 169.02 98.009 104.65 0 186.66-30.331 245.98-90.993 59.339-60.662 89.009-143.01 89.009-246.99zm-170.01-408c-21.992-48.685-67.654-73.016-136.98-73.016-94.678 0-179.67 40.678-255 122.01-75.331 81.331-113.01 170.01-113.01 266.01 0 107.32 20.67 198.99 62.008 274.99l183 21.992c-42-50.646-63-129.66-63-236.98 0-99.355 19.654-184.68 59.008-256.02 48.662-88.654 118.65-132.99 210-132.99 22.654 0 40.654 4.6772 53.977 14.008z"
        /></glyph
      >
   <glyph
          id="glyph39"
          horiz-adv-x="705"
          unicode="5"
        ><path
            id="path41"
            d="m652 765.01l-96.993-142.02c-111.99 50.008-207.66 75.001-287.01 75.001-37.985 0-66.662-4.9843-85.985-15l-52.016-320.98-73.985-44.008 51.992 432c68.67 42.662 153.99 63.993 255.99 63.993s198-16.323 288-48.992zm38.008-478c0-82.678-37.678-153-113.01-211.02-67.323-52.654-144.33-81.331-231-85.985 46.016 27.992 83.67 66.497 113.01 115.49 29.339 48.992 43.985 99.828 43.985 152.5 0 53.339-18.992 95.339-56.977 126-35.339 29.339-80.008 44.008-134.01 44.008-43.347 0-81.662-9.3544-114.99-28.016v67.016c55.985 34.654 115.65 51.992 178.99 51.992 73.347 0 141.66-20.008 204.99-60 72.686-45.992 109.02-103.35 109.02-171.99zm-329.01-230.01c-21.992-19.323-43.985-38.67-66-57.993-29.339-22.677-54.331-34.016-75.001-34.016-62.67 0-124.98 23.339-186.99 70.016l90.001 148.98c20.67-42.662 54-75.331 99.993-97.985 42.662-20.67 88.678-30.331 138-29.008z"
        /></glyph
      >
   <glyph
          id="glyph43"
          horiz-adv-x="657"
          unicode="9"
        ><path
            id="path45"
            d="m634 453c0-126.66-25.323-234.99-75.993-325-62.008-110.01-151.35-165-267.99-165-52.678 0-101.5 13.323-146.5 39.992-45 26.67-78.827 63-101.5 108.99l96.993 82.016c12-36.685 31.347-67.347 58.016-92.009 30-27.992 62.646-42 97.985-42 65.339 0 112.68 50.67 142.02 152.01 19.984 67.985 30 145.66 30 232.99 0 75.331-15.685 138.99-47.008 191.01-38.008 61.323-92.67 91.985-164.01 91.985-31.984 0-66-6.6615-102-19.984 34.016 65.339 91.678 97.985 173.01 97.985 111.99 0 192.66-32.315 241.99-96.993 43.347-56.67 65.008-141.99 65.008-255.99zm-226.99-50.008c-2.6693-61.323-6-97.324-10.016-108-11.339-33.331-39.662-49.985-84.993-49.985-66.662 0-123 19.323-168.99 57.993-49.347 40.654-74.008 93.662-74.008 159 0 54 13.323 118.65 39.992 193.99 60 21.354 107.67 31.677 143.01 31.016l29.008-1.0158c-35.339-54-53.008-108.99-53.008-165 0-38.646 8.0079-73.985 24-105.99 19.323-39.992 46.323-60 81.001-60 26.008 0 50.67 16.016 74.008 48z"
        /></glyph
      >
   <glyph
          id="glyph47"
          horiz-adv-x="706"
          unicode="8"
        ><path
            id="path49"
            d="m625 654c0-28.016-7.3229-60-21.992-96.001-17.339-43.347-37.347-65.008-60-65.008-4.6772 0-52.347 24.992-143.01 75.001 11.339 8.6694 20.67 22.677 28.016 42 6.6615 17.339 9.9922 33.662 9.9922 48.992 0 21.354-12.992 37.347-39 48-7.3465 3.3544-29.339 9.3544-66 18 6 21.354 17.835 38.67 35.504 52.016 17.669 13.323 37.488 19.984 59.504 19.984 54 0 98.316-10.323 132.99-30.992 42.662-24.662 63.993-62.008 63.993-111.99zm54.993-426c0-62.008-34.158-122.84-102.5-182.5-68.316-59.67-134.15-89.505-197.48-89.505-22.677 0-45.685 3-69 9.0001 44.646 26.67 83.316 56.008 115.98 88.016 44.67 43.985 67.016 84.331 67.016 120.99 0 46.654-34.677 91.324-104.01 134.01-63.993 34.654-128.01 69.662-192 105-69.331 43.323-104.01 89.646-104.01 138.99 0 62.67 22.843 117.17 68.504 163.49 45.662 46.347 100.16 71.835 163.51 76.512-59.339-54.662-89.009-107.34-89.009-158.01 0-34.654 38.339-74.008 114.99-117.99 70.678-39.992 141.66-80.339 213-120.99 76.678-53.339 114.99-109.02 114.99-167.01zm-323.98-174c-23.339-16.677-46.678-33.331-70.016-50.008-28.654-18.662-54.331-27.992-76.985-27.992-42.685 0-81.686 18.496-117 55.489-35.339 37.016-53.008 76.843-53.008 119.5 0 80.008 48.331 149.67 144.99 209.01l149.01-75.001c-60.662-40.678-90.993-87.001-90.993-138.99 0-27.331 12-50.174 36-68.504 24-18.331 49.985-26.173 78.001-23.504z"
        /></glyph
      >
   <glyph
          id="glyph51"
          horiz-adv-x="757"
          unicode="3"
        ><path
            id="path53"
            d="m723.01 228.99c0-69.993-35.339-130.66-106.02-181.99-64.654-46.678-133.66-70.016-206.98-70.016-36.685 0-75.355 4.6772-116.01 14.008 58.654 20.008 108.99 50.339 150.99 90.993 48 47.339 72.001 99.001 72.001 155.01 0 53.339-20.67 100.65-61.985 141.99-38.008 37.347-84.355 62.008-139.02 74.008 119.34 22.654 179.01 79.985 179.01 171.99 0 37.347-11.008 63.331-33 78.001-18 12.662-46.678 18.992-86.009 18.992-39.992 0-78.331-13.654-114.99-40.985-33.331-24.662-59.67-55.678-78.993-93.001l-82.016 118.98c83.339 73.347 176.67 110.01 280.02 110.01 61.323 0 122.65-15.662 183.99-47.008 73.323-36.662 109.98-82.654 109.98-138 0-39.331-10.984-76.985-33-112.98-21.992-36-50.646-63-85.985-81.001 111.99-47.339 168-117 168-209.01zm-414-186l-96.993-51.992c-28.677 0-62.67 14.339-102 42.992-30.685 21.331-58.678 46.678-84.001 76.016l103.98 156.99c4.6772-46.678 25.016-91.347 61.016-134.01 32.646-38.67 72.001-68.67 117.99-90.001z"
        /></glyph
      >
   <glyph
          id="glyph55"
          horiz-adv-x="670"
          unicode="2"
        ><path
            id="path57"
            d="m436 736c-59.339-14.669-114.99-39.331-166.99-74.008-58.678-38.646-100.35-82.324-125.01-130.98l-80.008 168.99c75.331 71.339 157.68 106.68 247.02 105.99h18l106.98-69.993zm206.01-144c0-77.339-46.678-148.32-140.01-213-85.985-52.654-171.66-105.33-256.99-157.98-92.009-66-136.68-139.35-134.01-220.02l-59.008-31.984c-6 32.67-9.0001 66.331-9.0001 100.98 0 102.66 40.016 192.33 120 269.01 74.67 55.323 149.34 110.67 224.01 165.99 80.008 60 120 120.66 120 182.01 0 55.985-32.008 96.662-96.001 121.98 51.992-1.9843 102.99-25.323 153-69.993 51.992-47.339 78.001-96.332 78.001-147zm16.984-490l-106.98-144.99c-56.008 42.662-140.67 63.993-254.01 63.993-53.339 0-100.98-3.6614-142.98-11.008l33.992 90.001c65.339 38.008 138.66 57 219.99 57 93.331 0 176.67-18.331 249.99-54.993z"
        /></glyph
      >
   <glyph
          id="glyph59"
          horiz-adv-x="203"
          unicode=":"
        ><path
            id="path61"
            d="m178.02 52.016c0-22.004-7.8662-42.52-23.528-61.512s-34.158-28.488-55.489-28.488c-19.984 0-37.347 9.0001-52.016 27-13.996 15.98-20.976 34.335-20.976 54.993 0 22.004 7.8308 42.485 23.492 61.477 15.662 19.028 34.158 28.524 55.489 28.524 20.02 0 37.17-8.504 51.52-25.512 14.315-17.008 21.508-35.823 21.508-56.481zm-151.02 291.97c-1.9843 22.004 4.1811 42.52 18.496 61.512 14.35 18.992 32.174 28.488 53.504 28.488 19.984 0 37.666-8.504 53.008-25.477 15.307-17.008 23.988-35.859 26.008-56.516 1.311-22.004-5.1733-42.485-19.524-61.512-14.315-18.992-32.174-28.488-53.504-28.488-19.984 0-37.985 9.0001-54 27-14.669 16.016-22.642 34.335-23.988 54.993z"
        /></glyph
      >
   <glyph
          id="glyph63"
          horiz-adv-x="282"
          unicode="1"
        ><path
            id="path65"
            d="m251.01 12l-171-66.993c-19.347 67.323-29.008 159.99-29.008 277.99 0 192.66 32.008 393 96.001 601l66.993-21.992c-29.339-81.993-43.985-188.34-43.985-319 0-157.35 27-314.34 81.001-471z"
        /></glyph
      >
   <glyph
          id="glyph67"
          horiz-adv-x="864"
          unicode="C"
        ><path
            id="path69"
            d="m845.02 705.02l-100.03-164.02c-49.323 108.67-135 162.99-257 162.99-38.658 0-72.32-4.6418-100.98-13.996 23.315 27.354 46.347 54.355 68.989 81.001 22.004 20.02 52.335 30.012 90.993 30.012 90.001 0 189.36-31.996 298.03-95.989zm38.977-571.01c-48.65-55.347-106.34-98.328-172.99-129.01-66.686-30.65-136.67-45.992-210.01-45.992-134.01 0-245.98 34.654-335.98 104-98.682 76.004-148 179.01-148 309.01 0 89.328 40.323 178.66 121 267.98 82.666 92.658 167.32 137.66 253.99 135h9.9922c-135.32-116.68-203-239.32-203-368.01 0-97.973 33.024-181.49 99.001-250.48 66.012-69.024 148-103.5 246.01-103.5 106.65 0 210.33 51.662 311 154.98l28.984-73.985z"
        /></glyph
      >
   <glyph
          id="glyph71"
          horiz-adv-x="684"
          unicode="F"
        ><path
            id="path73"
            d="m733.01 760.01c-0.67323-43.335-32.351-101.34-94.997-174.01-34.689 30.685-76.359 55.489-125.01 74.516-48.685 18.992-95.67 28.488-140.99 28.488-53.363 0-103.68-12.685-151.02-37.985l9.9922 78.981c72.001 37.985 167.35 57.012 286.02 57.012 71.327 0 143.33-9.0001 216-27zm-224.01-288l-89.009-159.02c-24.662 54-84.65 81.001-180 81.001-13.323 0-26.327-0.6378-38.977-1.9843l9.9922 75.012c53.327 22.642 107.01 33.981 161.01 33.981 55.985 0 101.66-9.6733 136.98-28.984zm-283.01-467.01l-184-80.008c-18.638 87.343-27.992 177.34-27.992 270 0 101.34 10.665 204.66 31.996 310.01 22.677 112.68 54.355 211.01 94.997 295.02l45-35.008c-20.658-58.004-31.004-134.33-31.004-229.01 0-164.66 23.67-341.68 71.008-531z"
        /></glyph
      >
   <glyph
          id="glyph75"
          horiz-adv-x="1045"
          unicode="O"
        ><path
            id="path77"
            d="m1025 444.97c0-93.331-32.315-182.98-97.016-268.94-60.662-82.064-135.36-142.37-224.01-181.06 99.355 116.72 149.03 241.73 149.03 375.03 0 93.331-34.016 178.51-102.05 255.47-67.961 77.032-147.62 115.51-238.96 115.51-30.685 0-61.016-5.315-90.993-16.016l93.969 90.001c27.354 3.4016 54 5.0315 80.008 5.0315 114.02 0 212.67-33.662 296.01-100.98 89.292-71.363 134.01-162.71 134.01-274.04zm-336.05-361l-64.985-103.96c-56.622-12.047-110.62-18-162-18-121.32 0-221.32 32.315-299.98 97.016-84.686 69.308-126.99 163.63-126.99 282.97 0 98.009 39.331 193.82 117.99 287.51 78.662 93.686 166.32 147.19 262.99 160.51-63.993-50.032-113.67-108.99-148.96-177.02-36.709-70.016-54.993-144.36-54.993-223.02 0-100.63 31.819-181.35 95.457-242.01 63.709-60.662 146.2-90.993 247.54-90.993 57.969 0 102.62 9.0001 133.94 27z"
        /></glyph
      >
   <glyph
          id="glyph79"
          horiz-adv-x="877"
          unicode="N"
        ><path
            id="path81"
            d="m852 525.02c0-176.67-42.662-365-127.98-565.02l-70.016 25.016c35.327 81.993 53.008 174.33 53.008 276.98 0 128.66-21.012 246.69-63 354.02-25.335 11.339-54 17.008-85.997 17.008-98.682 0-207.32-39.012-325.99-117l4.9961 79.973c70.654 63.355 151.66 115.69 243 157 97.973 44.682 190.99 68.67 278.97 72.001 62.008-67.997 93.012-167.99 93.012-299.98zm-580.01-520.02l-189-80.008c-23.315 84.012-34.973 187.69-34.973 311 0 210.01 42.981 404.68 128.98 584.01l49.996-40.004c-30.65-100.67-45.992-216.68-45.992-347.99 0-162 30.331-304.34 90.993-427.01z"
        /></glyph
      >
   <glyph
          id="glyph83"
          horiz-adv-x="837"
          unicode="E"
        ><path
            id="path85"
            d="m823.01 689.99l-104-144c-17.362 55.347-56.339 97.335-117 126-50.67 24.024-109.35 36-176 36-17.362 0-34.016-0.99213-50.032-2.9764 27.354 21.969 54.674 43.654 82.028 64.985 25.335 15.98 56.977 23.988 94.997 23.988 45.992 0 94.005-9.9922 144-29.977 47.977-18.673 90.001-43.335 126-74.02zm-248-238.01l-90.001-139c-15.343 38.693-62.682 58.004-142.02 58.004-33.981 0-66.012-2.9764-95.989-9.0001l9.9922 70.016c61.335 34.654 122.67 51.981 184 51.981 54.674 0 99.32-10.665 134.01-31.996zm272.98-362.98c-93.331-88.69-207.32-133.02-342-133.02-136.67 0-248.99 32.351-336.97 97.016-98.682 72.001-148 173.98-148 306 0 100.67 34.654 192.65 104 275.99 73.985 88.654 160.97 133.66 261 135-59.351-48.685-105.02-108.67-137.02-180-30.65-68.67-45.992-142.34-45.992-221 0-101.34 28.17-181.99 84.508-242.01 56.339-59.989 134.5-90.001 234.5-90.001 58.678 0 113.67 11.02 165.01 33.024 57.331 24.662 100.98 59.315 131 104l29.977-85.005z"
        /></glyph
      >
   <glyph
          id="glyph87"
          horiz-adv-x="292"
          unicode="I"
        ><path
            id="path89"
            d="m252.99 17.008l-168.98-79.016c-22.004 74.02-33.024 163.67-33.024 269.01 0 227.34 32.351 438.98 97.016 635l80.008-35.008c-27.354-83.339-40.996-181.99-40.996-296.01 0-173.3 21.969-338 65.977-493.98z"
        /></glyph
      >
   <glyph
          id="glyph91"
          horiz-adv-x="1025"
          unicode="M"
        ><path
            id="path93"
            d="m993 349c0-158-38.664-293.33-115.99-406l-64.006 59.017c38.012 75.316 57.004 164.32 57.004 266.99 0 115.34-30.671 221.98-92.012 320l-108.99-55.02-54.992 79.001c72.652 79.341 163.67 152.33 273 219 70.667-149.33 105.99-310.34 105.99-482.99zm-359.01 144.99l-108.99-173.99c-23.329 76.677-56.324 149.33-99.014 218.01-48.642 79.313-101.99 137.65-159.99 174.98l29.99 79.001c68.003-23.981 132.69-63.326 194-118.01 61.341-54.652 109.33-114.66 144-180zm-342.99-461.99l-184-93.996c-38.012 128.66-57.004 266.99-57.004 414.99 0 212 50.655 373.35 151.99 484.01l54-30.019c-49.322-117.32-73.984-246.98-73.984-389 0-149.98 36.312-278.67 108.99-385.99z"
        /></glyph
      >
   <glyph
          id="glyph95"
          horiz-adv-x="694"
          unicode="L"
        ><path
            id="path97"
            d="m707 256.01l-59.989-269.01c-45.355-15.343-99.674-22.996-163.03-22.996-67.323 0-130.64 10.984-189.99 32.988l-35.008 110.02c32.67-14.669 73.347-22.004 122.03-22.004 123.31 0 231.98 57.012 325.99 171zm-453.02-229.01l-203-64.985c-12.65 94.642-18.992 189-18.992 282.97 0 248.67 32.67 452.7 98.009 612l64.985-40.004c-24.662-89.328-36.992-184.32-36.992-284.99 0-187.34 31.996-355.68 95.989-505z"
        /></glyph
      >
   <glyph
          id="glyph99"
          horiz-adv-x="928"
          unicode="G"
        ><path
            id="path101"
            d="m853 733.01l-104-149.02c-25.994 49.351-64.998 88.015-116.98 116.02-49.351 25.313-103.35 37.984-162 37.984-21.997 0-43.342-1.6724-64.006-4.9889l73.984 89.007c31.351 3.9968 61.341 5.9811 89.999 5.9811 52.015 0 102.67-7.0015 152.02-21.005 58.648-17.32 102.33-41.981 130.99-73.984zm68.995-592.01h-48.982c-52.667-59.329-114.01-100.66-184-123.99 34.668 59.981 51.987 120.98 51.987 183 0 84.642-40.677 142.98-122 174.98l284 84.018 18.992-318.02zm-257.98-64.006c1.3323-52.667-20.353-87.647-64.998-105-26.674-10.658-71.007-15.987-133-15.987-121.35 0-221.67 27.326-301.01 82.006-91.332 61.993-137 151-137 266.99 0 122 35.149 228.98 105.5 320.99 70.327 92.012 164.49 152.33 282.5 180.99-65.338-57.316-116.02-123.34-152.02-198-38.664-77.981-57.996-158.65-57.996-241.99 0-87.335 28.686-161.66 86.003-223 58.677-63.326 131.33-94.988 218.01-94.988 47.99 0 99.325 9.3259 154 27.978z"
        /></glyph
      >
   <glyph
          id="glyph103"
          horiz-adv-x="780"
          unicode="S"
        ><path
            id="path105"
            d="m707.01 734.99l-99.014-133.99c-52.667 62.674-123.34 93.996-212 93.996-20.664 0-37.984-1.6724-51.987-4.9889 26.646 25.342 53.319 50.655 79.993 75.996 24.009 17.32 56.324 25.994 97.001 25.994 65.99 0 127.98-18.992 186.01-57.004zm69.987-516.98c0-73.332-38.012-134.33-114.01-183-65.99-43.342-137.34-64.998-213.99-64.998 36.652 19.332 68.655 43.001 96.009 70.979 35.32 36 52.979 70.356 52.979 103.01 0 41.329-43.993 81.666-131.98 121.01-81.354 36-163.02 72-245.02 108-87.335 49.322-130.99 106.98-130.99 173 0 47.99 33.675 95.669 101 143.01 54.68 38.664 110.66 65.65 168.01 80.985-73.332-49.322-110.01-97.341-110.01-144 0-38.012 45.666-81.666 137-130.99 84.67-42.69 169.34-85.351 254.01-128.01 91.332-52.667 137-102.33 137-148.99zm-283.01-174.02c-28.658-18-57.004-36.34-84.982-54.992-34.016-20.012-65.678-29.99-95.017-29.99-43.993 0-95.328 13.663-154 40.989-49.322 23.329-95.64 51.335-138.98 83.99l130 154c34.668-55.332 79.653-101 135.01-137 59.981-38.664 120.64-57.996 181.98-57.996 8.674 0 17.348 0.34016 25.994 0.99212z"
        /></glyph
      >
   <glyph
          id="glyph107"
          horiz-adv-x="822"
          unicode="Z"
        ><path
            id="path109"
            d="m730 727.99c-28.658-108-78.009-209.65-148-304.98-74.012-102.02-157.66-177.02-251.01-225.01l-58.989 53.008c126 148 195.33 266 207.98 353.99-72 38.664-153.66 57.996-245 57.996-50.003 0-92.324-4.6488-126.99-14.003l-10.998 79.001c87.335 40.677 185.67 61.001 295 61.001 124.67 0 237.34-20.324 338-61.001zm97.001-626c-65.99-43.313-142.02-77.981-227.99-104-86.003-25.994-168.35-38.976-247.01-38.976-130.68 0-247.01 36.312-349 108.99 60.661 22.677 133.99 72.34 220 148.99 45.326-39.316 97.993-70.979 158-94.988 62.674-25.994 122.34-39.004 179.01-39.004 81.326 0 154.32 25.994 219 78.009l47.99-59.017z"
        /></glyph
      >
   <glyph
          id="glyph111"
          horiz-adv-x="846"
          unicode="V"
        ><path
            id="path113"
            d="m839.98 653c0-231.34-72.001-410.32-215.97-536.99l-15.024 112c48.685 66.65 72.993 153 72.993 258.98 0 88.654-21.969 177.66-65.977 266.99l204.98 89.009c12.685-52.654 18.992-116.01 18.992-189.99zm-255.97-566.01c0-67.997-80.008-126.32-240.03-175 16.016 60.024 24.024 131.35 24.024 214.02 0 138.65-28.028 261.68-84.012 369-59.315 113.99-147.33 202.68-264.01 266l52.016 59.989c142.66-80.646 260.33-182.34 352.99-304.98 106.02-139.36 159.02-282.33 159.02-429.03z"
        /></glyph
      >
   <glyph
          id="glyph115"
          horiz-adv-x="940"
          unicode="R"
        ><path
            id="path117"
            d="m707.99 661.01c0-91.347-60.662-161.01-181.99-209.02-89.328-35.327-187.69-53.646-295.02-54.993l4.9961 75.012c8.6812-5.3504 21.012-8.0079 37.028-8.0079 51.308 0 104 14.988 158 45 61.973 34.654 92.977 75.331 92.977 122 0 26.008-16.654 46.666-49.996 62.008-26.008 12.012-54 18-83.977 18-46.028 0-100.67-10.346-164.02-31.004l9.9922 70.016c19.347 17.965 59.351 32.634 120.01 43.973 48.685 9.3544 93.012 13.996 133.02 13.996 145.98 0 218.98-49.004 218.98-146.98zm238.01-656.01l-224.01-75.012c4.6772 18 7.0158 36 7.0158 54 0 70.69-33.662 146.02-101.02 226.03-54.638 64.666-119.3 120.33-194 167 66.686 16.654 100.03 24.98 100.03 24.98 80.646 0 165.33-47.339 253.99-141.98 77.989-84.012 130.68-169.02 158-255.01zm-690.99 9.9922l-169.02-85.005c-36 120.01-54 258.7-54 416.02 0 176 29.658 334 89.009 473.99l75.012-35.008c-23.351-86.67-35.008-189.32-35.008-307.99 0-172.67 31.323-326.66 94.005-462.02z"
        /></glyph
      >
   <glyph
          id="glyph119"
          horiz-adv-x="641"
          unicode="k"
        ><path
            id="path121"
            d="m644.99 35.008l-154-80.022c-16.639 76.025-51.477 147.68-104.48 215.01-53.008 67.351-114.18 118.69-183.51 154l239.02 220 43.001-43.001-140.99-170.98c68.655-36 129.66-76.677 183-122 74.664-62.674 113.98-120.33 117.98-173zm-447.98-6.0094l-154-74.012c-11.338 64.006-17.008 145.67-17.008 245.02 0 220 34.327 428.99 103.01 626.99l61.993-25.001c-28.006-87.335-42.009-204.35-42.009-351.01 0-137.99 16.016-278.64 48.019-421.99z"
        /></glyph
      >
   <glyph
          id="glyph123"
          horiz-adv-x="576"
          unicode="b"
        ><path
            id="path125"
            d="m255 752.99c-43.993-72-77.329-163.33-100.01-274-20.664-97.341-31.011-198-31.011-302 0-28.006 0.68031-54.652 2.0126-79.993l-72.992 11.99c-12.019 87.335-18 175.66-18 265.01 0 180.68 18 331.68 54 453 77.329-12.671 132.66-37.332 166-74.012zm312.01-461.99c0-88.667-50.683-165.34-152.02-230-89.999-56.664-181.98-85.01-275.98-85.01-20.664 0-41.357 1.3323-62.022 3.9968v80.022c13.351-2.6646 27.666-3.9968 43.001-3.9968 71.348 0 138.02 22.308 200.01 66.982 68.003 48.671 101.99 107.35 101.99 176 0 32.683-12.983 59.329-39.004 79.993-25.994 20.664-55.984 31.011-89.999 31.011-33.307 0-64.318-12.331-92.976-36.992l11.99 79.001c54.652 33.335 105.34 50.003 151.99 50.003 53.348 0 100.52-21.855 141.5-65.508 40.989-43.682 61.511-92.182 61.511-145.5z"
        /></glyph
      >
   <glyph
          id="glyph127"
          horiz-adv-x="600"
          unicode="g"
        ><path
            id="path129"
            d="m631.99 617.99c0-87.981-38.339-131.99-114.98-131.99-6.6615 0-24.343 8.0079-53.008 23.988 33.343 9.9922 49.996 48.685 49.996 116.01 0 9.319-0.3189 17.681-0.99213 25.016h116.01c1.9843-9.3544 2.9764-20.339 2.9764-33.024zm-82.985-285.98c0-58.678-20.339-111.69-61.016-159.02-42.662-49.996-92.304-72.993-149-68.989l-17.008 0.99213v74.02c32.032-2.6929 56.339 13.323 73.028 47.977 12.65 26.681 18.992 57.686 18.992 93.012 0 50.67-29.658 89.009-89.009 115.02-47.339 19.984-99.32 28.666-155.98 25.973l159.98 55.028c50.67 0 99.32-17.681 145.98-53.008 49.359-38.02 74.02-81.674 74.02-131zm-361.99-135l-79.016-98.009c-26.681 8.6812-46.985 27.673-61.016 57.012-12.65 25.335-18.992 53.327-18.992 83.977 0 47.339 12.331 86.351 36.992 117 26.681 34.016 62.682 50.351 108 49.004h8.0079c-20.658-39.331-31.004-78.981-31.004-118.98 0-38.693 12.331-68.67 37.028-90.001zm361.99-404.01c0-32.67-9.9922-62.008-30.012-87.981-21.331-28.028-47.658-41.67-78.981-41.032h-13.004c29.977 26.681 45 55.028 45 85.005 0 27.992-27.673 59.67-83.02 94.997-50.67 30.685-101.3 61.69-151.97 93.012-55.347 39.331-83.02 78.662-83.02 117.99 0 13.996 14.35 43.016 43.016 87.024 19.311 28.666 38.658 57.331 58.004 85.997l36.992-18c-18-26.008-27-54-27-84.012 0-36.674 23.988-72.674 72.001-108 40.004-23.988 80.008-48.012 119.98-72.001 8.6812-1.9843 20.693-6.6615 36-13.996 37.347-23.988 56.02-70.335 56.02-139zm-158.99-104.99c-24.697-34.016-62.682-51.024-114.02-51.024-72.001 0-150.66 25.335-235.99 76.004l98.009 165.01c16.654-51.343 42.307-95.351 76.997-131.99 40.642-42.024 85.324-63 133.97-63 13.358 0 27 1.6654 41.032 4.9961z"
        /></glyph
      >
   <glyph
          id="glyph131"
          horiz-adv-x="404"
          unicode="f"
        ><path
            id="path133"
            d="m420.98 489.02l-85.997-141.02c-3.3307 34.689-32.988 52.016-88.973 52.016-11.339 0-22.677-0.99213-34.016-3.0118l18 80.008c38.658 22.004 76.323 32.988 113 32.988 32.67 0 58.678-6.9804 77.989-20.976zm-6.9804 318.97c-15.343-73.985-31.677-117-49.004-128.98-56.658 4.6418-101.66 14.988-135 31.004-44.008-58.678-66.012-146.02-66.012-262.03 0-138.65 24.343-282.33 73.028-430.98l-154.03-80.008c-30.65 77.989-45.992 167.32-45.992 268.02 0 93.969 12.012 193.64 36 298.99 24.024 102.01 56.02 197.33 96.024 285.98 53.327 25.335 104.32 38.02 152.97 38.02 38.693 0 69.343-6.6615 92.02-20.02z"
        /></glyph
      >
   <glyph
          id="glyph135"
          horiz-adv-x="274"
          unicode="l"
        ><path
            id="path137"
            d="m236.01 792c-39.345-109.33-59.017-241.99-59.017-397.98 0-130.02 17.66-255 53.008-375.02-36.68-36.652-93.656-54.992-171.01-54.992-3.9968 48.671-5.9811 108.34-5.9811 179.01 0 319.32 40.649 547.99 122 685.98l61.001-36.992z"
        /></glyph
      >
   <glyph
          id="glyph139"
          horiz-adv-x="617"
          unicode="h"
        ><path
            id="path141"
            d="m577.99 296.01c0-104-30.331-212.67-90.993-326.02l-73.985 25.016c18 17.327 32.315 45.319 42.981 84.012 8.6812 32.634 13.004 64.666 13.004 95.989 0 32.67-5.6693 62.646-17.008 90.001-3.3307 7.3347-18.319 35.008-45 82.985-88.654-11.976-148-26.327-177.98-42.981l-5.9882 79.973c43.973 30.012 91.985 54.355 143.97 73.028 57.367 20.658 109.67 31.004 157 31.004 36-52.016 54-116.36 54-193zm-324 482c-63.993-152.01-95.989-313.34-95.989-484.02 0-100.67 17.681-194.32 53.008-280.99l-135-61.016c-27.354 79.335-40.996 173.02-40.996 281.02 0 206.65 52.654 400.33 158 581l60.981-36z"
        /></glyph
      >
   <glyph
          id="glyph143"
          horiz-adv-x="635"
          unicode="d"
        ><path
            id="path145"
            d="m605 533c0-137.99-14.003-270.65-41.981-397.98l-86.003-13.011c18 62.674 26.986 131.33 26.986 205.99 0 154.69-31.323 298.34-93.996 431l147 79.993c32.003-77.981 47.99-180 47.99-306zm-64.006-454.99l-11.99-73.02c-62.674-19.984-126.65-29.99-191.99-29.99-79.341 0-148.68 21.005-208 63.014-66.67 46.658-100.01 108.31-100.01 184.99 0 71.319 37.332 135.66 112 193.01 69.335 52.667 140.99 79.001 215.01 79.001 27.326 0 53.319-4.0252 78.009-12.019v-66.982c-18 2.6646-35.348 3.9968-52.015 3.9968-54 0-101.34-17.66-141.99-53.008-42.009-37.332-63.014-82.346-63.014-135.01 0-56.664 27.014-99.325 81.014-127.98 42.661-23.329 94.988-35.008 156.98-35.008 44.022 0 86.003 3.0047 126 9.0141z"
        /></glyph
      >
   <glyph
          id="glyph147"
          horiz-adv-x="900"
          unicode="m"
        ><path
            id="path149"
            d="m847 269.01c0-109.35-23.988-205.69-72.001-288.99l-72.993 12.969c22.004 63.355 32.988 127.35 32.988 192.01 0 78.662-21.331 135.32-63.993 170.01l-98.009 5.9882-24.98 67.004c37.985 28.666 123.98 59.351 257.99 91.985 27.319-73.312 40.996-156.97 40.996-250.97zm-320.99-13.004c0-105.34-18.992-201.33-57.012-288l-55.985 31.004c13.996 39.331 20.976 80.008 20.976 122 0 93.331-25.335 175.32-76.004 245.98l-128.98-5.9882-12.012 61.016c49.996 49.323 127.67 85.997 233.01 109.98 50.67-77.989 76.004-170.01 76.004-275.99zm-302.99-157c0-52.654-2.0197-98.328-6.0237-136.98l-166 48.969c35.327 58.678 53.008 132.34 53.008 221.03 0 88.654-13.323 172.31-40.004 250.97l61.016 25.016c65.339-81.355 98.009-217.67 98.009-409.01z"
        /></glyph
      >
   <glyph
          id="glyph151"
          horiz-adv-x="647"
          unicode="e"
        ><path
            id="path153"
            d="m594 333c0-52.016-26.327-93.686-79.016-125.01-45.319-26.646-95.67-39.331-150.98-37.985h-34.016l-42.981 85.997c15.307-11.339 33.981-17.008 55.985-17.008 24.662 0 47.658 7.0158 68.989 21.012 24.024 15.307 36 34.973 36 58.996 0 24.662-10.134 45.992-30.473 63.993-20.339 18-43.193 28.984-68.528 32.988 4.004 17.362 22.004 34.335 54 51.024 28.666 14.669 53.363 22.004 74.02 22.004 33.343 0 62.008-18.354 85.997-55.028 20.658-32.67 31.004-66.331 31.004-100.98zm-5.9882-273.01c-55.347-59.989-132.7-90.001-232.02-90.001-205.34 0-307.99 85.005-307.99 255.01 0 70.654 35.327 133.34 105.98 188.01 66.012 50.67 135 76.004 207 76.004-109.31-84.012-163.99-168.02-163.99-252 0-50.67 17.008-96.024 50.989-136.03 36-41.988 79.016-63 129.01-63 65.339 0 129.33 34.016 191.98 102.01l19.028-80.008z"
        /></glyph
      >
   <glyph
          id="glyph155"
          horiz-adv-x="656"
          unicode="a"
        ><path
            id="path157"
            d="m660.02-8.0079c-22.004-8.0079-43.016-11.976-63-11.976-68.032 0-112 30.969-132.02 92.977-10.665 63.993-21.331 128.02-31.996 192.01-17.327 78.662-55.312 131-113.99 157l131 54.993c51.343-19.347 85.678-70.654 103-153.99 9.319-72.001 18.673-144 27.992-216 12.012-74.02 38.339-112.36 79.016-115.02zm-290.02 491c-69.981-16.654-155.66-67.642-257-153l-69.981 80.008c25.973 28.666 59.138 51.839 99.497 69.485 40.323 17.681 79.831 26.504 118.49 26.504 36.674 0 72.993-7.6536 108.99-22.996zm45.992-441c-18-19.984-49.996-34.973-95.989-45-36-7.9725-72.32-11.976-108.99-11.976-36 0-71.682 13.996-107.01 41.988-37.985 30.012-56.339 62.682-54.993 98.009 1.3465 46.666 31.323 87.981 90.001 123.98 52.654 32.67 103.68 49.004 153 49.004 31.996 0 63.993-5.6693 95.989-17.008l-1.9843-61.973c-8.0079 1.9843-17.327 2.9764-28.028 2.9764-31.323 0-63-6.6615-94.997-19.984-39.331-17.327-59.315-39.685-59.989-67.004-0.67323-21.331 7.0158-39.508 22.996-54.496 16.016-14.988 34.335-22.5 54.993-22.5 32.67 0 70.335 17.008 113 50.989l22.004-67.004z"
        /></glyph
      >
   <glyph
          id="glyph159"
          horiz-adv-x="590"
          unicode="c"
        ><path
            id="path161"
            d="m546.98 428l-109.98-98.009c-12.012 25.335-30.012 46.347-54 63-23.988 16.689-49.678 25.016-76.997 25.016-8.0079 0-15.662-0.67323-22.996-2.0197l80.008 79.016c12.65 2.6575 25.335 4.004 37.985 4.004 59.351 0 108-23.67 145.98-71.008zm6.0237-356c-22.677-27.992-62.682-50.67-120.01-67.997-48.012-13.996-94.678-21.012-140-21.012-73.347 0-133.34 18.992-180 57.012-49.996 40.678-75.012 96.662-75.012 167.99 0 76.004 26.008 140.67 78.024 194 45.992 47.339 108 82.666 185.99 106.02-32.67-32.67-60.662-72.355-84.012-119.02-25.973-51.308-38.977-97.654-38.977-138.97 0-38.693 17.327-78.024 51.981-118.03 34.689-40.004 71.327-59.989 110.02-59.989 86.67 0 149.32 30.65 187.97 91.985l24.024-91.985z"
        /></glyph
      >
   <glyph
          id="glyph163"
          horiz-adv-x="616"
          unicode="o"
        ><path
            id="path165"
            d="m591.98 256.01c0-66.686-28.984-126-86.989-178.02-51.343-46.666-112-77.316-181.99-91.985 34.654 26.646 63.319 59.989 85.997 99.993 23.988 42.662 36 85.005 36 126.99 0 45.355-9.3544 91.347-27.992 138.01-24.024 59.315-55.347 86.989-94.005 82.985l72.993 55.028c61.335-5.3504 109.98-30.366 145.98-75.012 33.343-42.662 49.996-95.351 49.996-158zm-268.98-196.02l-74.02-67.997c-58.004-1.9843-106.97 19.666-146.98 65.02-37.347 42.662-56.02 93.331-56.02 151.97 0 82.028 25.016 149 75.012 201.01 48.012 50.67 113 81.001 194.99 90.993-48.65-60.662-78.981-101.98-90.993-123.98-21.331-41.351-31.996-92.02-31.996-152.01 0-44.008 7.6536-81.001 22.996-111.01 19.347-37.311 48.012-55.985 85.997-55.985 6.6615 0 13.677 0.67323 21.012 1.9843z"
        /></glyph
      >
   <glyph
          id="glyph167"
          horiz-adv-x="617"
          unicode="n"
        ><path
            id="path169"
            d="m562.01 297c0-116.01-20.339-226.35-61.016-331.02l-67.997 24.024c17.327 37.985 26.008 85.997 26.008 144 0 80.008-20.658 153.32-62.008 220.01-42.662 8.6457-80.008 12.969-112 12.969-24.662 0-42.662-2.3032-54-6.9804l-5.9882 62.008c91.985 65.977 180.32 96.981 265.01 92.977l22.996-0.99213c32.67-58.678 49.004-131 49.004-216.99zm-343-161.01c0-72.674-4.3583-129.33-13.004-170.01l-153 55.028c38.658 107.33 58.004 214.34 58.004 320.99 0 63.319-7.0158 112.32-21.012 147.01l72.993 24.98c37.347-127.31 56.02-253.31 56.02-378z"
        /></glyph
      >
   <glyph
          id="glyph171"
          horiz-adv-x="261"
          unicode="i"
        ><path
            id="path173"
            d="m267.98 758.98c0-20.658-6.6615-38.977-19.984-54.993-14.669-18-31.996-27-51.981-27-15.343 0-27.673 5.8465-37.028 17.504-9.319 11.658-13.996 25.158-13.996 40.5 0 20.02 7.0158 38.516 21.012 55.489 13.996 17.008 31.004 25.512 50.989 25.512 15.343 0 27.673-5.6693 36.992-17.008 9.3544-11.303 13.996-24.662 13.996-40.004zm-30.969-710.97l-147.01-99.001c-28.666 45.992-43.016 118.67-43.016 217.99 0 113.99 14.35 233.68 43.016 359.01l67.997-12.012c-8.0079-38.658-12.012-77.67-12.012-117 0-59.315 8.0079-119.66 24.024-180.99 15.98-64.666 38.339-120.69 67.004-167.99z"
        /></glyph
      >
   <glyph
          id="glyph175"
          horiz-adv-x="456"
          unicode="r"
        ><path
            id="path177"
            d="m481.01 485.01l-80.008-147.01c-31.996 27.992-71.008 41.988-117 41.988-33.981 0-66.65-9.9922-98.009-29.977l-5.9882 79.973c86.67 55.347 162 83.02 225.99 83.02 32.67 0 57.686-9.3544 75.012-27.992zm-264.01-441l-159.98-85.997c-17.362 72.001-26.008 155.3-26.008 249.98 0 116.01 17.008 218.66 50.989 308.02l61.016-25.016c-15.343-39.331-22.996-88.654-22.996-148 0-108 32.315-207.68 96.981-298.99z"
        /></glyph
      >
   <glyph
          id="glyph179"
          horiz-adv-x="612"
          unicode="z"
        ><path
            id="path181"
            d="m545.99 409.01c-25.335-58.004-117.32-150.02-275.99-275.99l-67.997 36.992c65.339 41.315 112.68 106.97 141.98 196.97-54 16.016-135.99 24.024-245.98 24.024l-24.024 67.997c62.682 15.98 131.03 23.988 205.02 23.988 114.66 0 203.67-24.662 266.99-73.985zm61.016-337.01c-36-31.996-84.686-57.331-146.02-76.004-54.638-15.98-109.31-23.988-163.99-23.988-95.989 0-194.99 22.996-297 68.989l153 99.001c83.339-44.682 166-67.004 248-67.004 65.339 0 117.67 18 157 54l49.004-54.993z"
        /></glyph
      >
   <glyph
          id="glyph183"
          horiz-adv-x="622"
          unicode="q"
        ><path
            id="path185"
            d="m586 480.02c-40.004-130.68-59.989-275.35-59.989-434.02 0-115.34 13.996-220.01 41.988-313.98l-153.99-111.01c-14.669 63.993-22.004 145.98-22.004 245.98 0 225.36 46.347 440.01 139 644l54.993-30.969zm-122.99 0l-36.992-68.032c-23.351 10.665-46.028 16.016-68.032 16.016-49.996 0-91.666-26.681-124.97-80.008-29.339-45.992-44.008-95.989-44.008-149.99 0-37.347 10.843-67.997 32.492-91.985 21.685-24.024 51.166-36 88.512-36 19.311 0 33.662 3.6496 42.981 10.984v-85.997c-27.992-9.9922-55.312-14.988-81.993-14.988-63.993 0-118.98 24.166-164.98 72.497-46.028 48.331-69.024 104.81-69.024 169.48 0 74.694 28.347 141.66 85.005 201.01 56.658 59.315 122.35 89.009 197.01 89.009 52.654 0 100.67-10.665 144-31.996z"
        /></glyph
      >
   <glyph
          id="glyph187"
          horiz-adv-x="510"
          unicode="s"
        ><path
            id="path189"
            d="m435.02 462.02l-61.016-89.009c-16.016 36.674-54.674 59.315-116.01 67.997l43.016 49.004c21.331 2.6575 36.992 4.004 46.985 4.004 23.351 0 52.335-10.665 87.024-31.996zm36.992-317.02c0-44.008-23.67-80.327-71.008-108.99-37.347-22.677-81.001-36.992-131-43.016 49.323 36.674 73.985 75.367 73.985 116.01 0 35.327-24.662 65.339-73.985 90.001-45.992 20.02-91.985 40.004-138.01 59.989-49.323 26.008-73.985 58.678-73.985 98.009 0 36.674 17.327 69.024 51.981 97.016 32.67 26.646 68.032 40.004 106.02 40.004 12.012 0 23.988-1.3465 36-4.004-36.674-34.016-54.993-63.674-54.993-89.009 0-19.347 23.67-40.323 70.973-63 71.363-33.343 115.34-56.339 132.02-68.989 47.977-34.016 72.001-75.331 72.001-124.02zm-207.99-85.005c-13.358-12.65-26.681-25.654-40.004-38.977-19.347-17.362-34.689-26.008-45.992-26.008-38.02 0-97.335 25.654-178.02 76.997l91.985 91.985c49.359-61.335 106.69-95.989 172.03-104z"
        /></glyph
      >
   <glyph
          id="glyph191"
          horiz-adv-x="586"
          unicode="u"
        ><path
            id="path193"
            d="m553.01 464.99c-46.666-78.662-70.016-176.67-70.016-293.99 0-47.339 4.9961-94.678 15.024-142.02l-67.004-30.969c-37.347 87.981-56.02 187.66-56.02 298.99 0 85.324 14.35 163.67 43.016 234.99l135-67.004zm-189.99-380.98c-57.331-44.682-149.35-77.351-276.03-98.009-24.662 66.65-36.992 147.01-36.992 240.98 0 106.69 20.658 206.36 62.008 299.02l54.993-43.016c-4.004-33.981-5.9882-69.981-5.9882-108 0-103.32 16.335-179.65 49.004-229.01l128.98 12.012 24.024-73.985z"
        /></glyph
      >
   <glyph
          id="glyph195"
          horiz-adv-x="599"
          unicode="p"
        ><path
            id="path197"
            d="m576 258.98c0-59.315-36.992-116.65-111.01-171.99-69.308-52.654-134.33-78.981-194.99-78.981-18.673 0-40.004 1.9843-63.993 5.9882l-6.0237 72.993c20.693-5.315 40.678-7.9725 60.024-7.9725 50.67 0 92.658 24.307 126 72.993 29.339 44.008 43.973 92.658 43.973 145.98 0 31.323-12.65 58.855-37.985 82.489-25.335 23.67-53.682 35.504-85.005 35.504-30.65 0-64.312-9.319-100.98-27.992l6.9804 80.008c45.992 27.992 90.674 41.988 134.01 41.988 60.662 0 113.99-26.504 160.02-79.477 45.992-53.008 68.989-110.2 68.989-171.53zm-376.02-526.96l-153-74.02c-10.665 75.331-15.98 169.34-15.98 282.01 0 212 23.67 408.33 71.008 588.97l67.997-24.98c-18.673-91.347-27.992-200.34-27.992-327.01 0-162.64 19.311-311 57.969-444.97z"
        /></glyph
      >
   <glyph
          id="glyph199"
          horiz-adv-x="447"
          unicode="t"
        ><path
            id="path201"
            d="m436.01 464.99l-36.992-91.985-103 32.988 4.9961 65.02 135-6.0237zm-49.996-349.98c-77.351-77.351-153-120.01-227.02-128.02-22.004 63.993-32.988 143.01-32.988 237.01 0 64.666 4.9961 125.33 14.988 181.99l-133.97-4.004-7.0158 75.012 158.99 24.98c16.689 66.686 37.347 140.35 62.008 221.03l72.993-25.016c-33.981-95.989-50.989-201.33-50.989-316 0-93.331 9.0001-174.01 27-242.01l91.985 36.992 24.024-61.973z"
        /></glyph
      >
   <glyph
          id="glyph203"
          horiz-adv-x="516"
          unicode="v"
        ><path
            id="path205"
            d="m498.02 482.99c-12.685-77.989-53.682-176-123.02-293.99l-72.993 72.993c33.343 26.681 80.327 110.66 140.99 252l55.028-31.004zm-147.01-349.98l-104-178.02c-56.02 70.016-103 152.33-140.99 247.01-38.02 94.678-60.697 186.34-68.032 275l55.028 42.981c19.984-74.658 52.335-146.3 96.981-214.97 48.012-74.02 101.66-131.35 161.01-171.99z"
        /></glyph
      >
   <glyph
          id="glyph207"
          horiz-adv-x="647"
          unicode="è"
        ><path
            id="path209"
            d="m594 333c0-52.016-26.327-93.686-79.016-125.01-45.992-26.646-96.308-39.331-150.98-37.985h-34.016l-42.981 85.997c15.307-11.339 33.981-17.008 55.985-17.008 24.662 0 47.658 7.0158 68.989 21.012 24.024 15.307 36 34.973 36 58.996 0 24.662-10.134 45.992-30.473 63.993-20.339 18-43.193 28.984-68.528 32.988 4.004 17.362 22.004 34.335 54 51.024 28.666 14.669 53.363 22.004 74.02 22.004 33.343 0 62.008-18.354 85.997-55.028 20.658-32.67 31.004-66.331 31.004-100.98zm-5.9882-273.01c-55.347-59.989-132.7-90.001-232.02-90.001-205.34 0-307.99 85.005-307.99 255.01 0 70.654 35.327 133.34 105.98 188.01 66.012 50.67 135 76.004 207 76.004-109.31-84.012-163.99-168.02-163.99-252 0-50.67 17.008-96.024 50.989-136.03 36-41.988 79.016-63 129.01-63 65.339 0 129.33 34.016 191.98 102.01l19.028-80.008zm-403.02 643.01c52.016-11.339 102.69-28.666 152.01-51.981 55.985-26.681 99.674-57.367 131-92.02-8.6812 50.67-32.67 97.654-72.001 140.99-36.674 41.351-80.008 71.682-130 91.028l-81.001-88.016z"
        /></glyph
      >
   <glyph
          id="glyph211"
          horiz-adv-x="656"
          unicode="à"
        ><path
            id="path213"
            d="m660.02-8.0079c-22.004-8.0079-43.016-11.976-63-11.976-68.032 0-112 30.969-132.02 92.977-10.665 63.993-21.331 128.02-31.996 192.01-17.327 78.662-55.312 131-113.99 157l131 54.993c51.343-19.347 85.678-70.654 103-153.99 9.319-72.001 18.673-144 27.992-216 12.012-74.02 38.339-112.36 79.016-115.02zm-290.02 491c-69.981-16.654-155.66-67.642-257-153l-69.981 80.008c25.973 28.666 59.138 51.839 99.497 69.485 40.323 17.681 79.831 26.504 118.49 26.504 36.674 0 72.993-7.6536 108.99-22.996zm45.992-441c-18-19.984-49.996-34.973-95.989-45-36-7.9725-72.32-11.976-108.99-11.976-36 0-71.682 13.996-107.01 41.988-37.985 30.012-56.339 62.682-54.993 98.009 1.3465 46.666 31.323 87.981 90.001 123.98 52.654 32.67 103.68 49.004 153 49.004 31.996 0 63.993-5.6693 95.989-17.008l-1.9843-61.973c-8.0079 1.9843-17.327 2.9764-28.028 2.9764-31.323 0-63-6.6615-94.997-19.984-39.331-17.327-59.315-39.685-59.989-67.004-0.67323-21.331 7.0158-39.508 22.996-54.496 16.016-14.988 34.335-22.5 54.993-22.5 32.67 0 70.335 17.008 113 50.989l22.004-67.004zm-254.98 661.01c51.981-11.339 102.65-28.666 151.97-51.981 56.02-26.681 99.674-57.367 131.03-92.02-8.6812 50.67-32.67 97.654-72.001 140.99-36.674 41.351-80.008 71.682-130 91.028l-81.001-88.016z"
        /></glyph
      >
   <glyph
          id="glyph215"
          horiz-adv-x="647"
          unicode="é"
        ><path
            id="path217"
            d="m594 333c0-52.016-26.327-93.686-79.016-125.01-45.992-26.646-96.308-39.331-150.98-37.985h-34.016l-42.981 85.997c15.307-11.339 33.981-17.008 55.985-17.008 24.662 0 47.658 7.0158 68.989 21.012 24.024 15.307 36 34.973 36 58.996 0 24.662-10.134 45.992-30.473 63.993-20.339 18-43.193 28.984-68.528 32.988 4.004 17.362 22.004 34.335 54 51.024 28.666 14.669 53.363 22.004 74.02 22.004 33.343 0 62.008-18.354 85.997-55.028 20.658-32.67 31.004-66.331 31.004-100.98zm-5.9882-273.01c-55.347-59.989-132.7-90.001-232.02-90.001-205.34 0-307.99 85.005-307.99 255.01 0 70.654 35.327 133.34 105.98 188.01 66.012 50.67 135 76.004 207 76.004-109.31-84.012-163.99-168.02-163.99-252 0-50.67 17.008-96.024 50.989-136.03 36-41.988 79.016-63 129.01-63 65.339 0 129.33 34.016 191.98 102.01l19.028-80.008zm-119.02 616.01c-53.327-1.3465-106.34-9.319-158.99-23.988-59.989-16.689-108.36-39.331-144.99-67.997 17.327 48.65 49.004 90.993 94.997 126.99 43.335 33.981 91.312 55.985 144 65.977l64.985-100.98z"
        /></glyph
      >
   <glyph
          id="glyph219"
          horiz-adv-x="586"
          unicode="û"
        ><path
            id="path221"
            d="m553.01 464.99c-46.666-78.662-70.016-176.67-70.016-293.99 0-47.339 4.9961-94.678 15.024-142.02l-67.004-30.969c-37.347 87.981-56.02 187.66-56.02 298.99 0 85.324 14.35 163.67 43.016 234.99l135-67.004zm-189.99-380.98c-57.331-44.682-149.35-77.351-276.03-98.009-24.662 66.65-36.992 147.01-36.992 240.98 0 106.69 20.658 206.36 62.008 299.02l54.993-43.016c-4.004-33.981-5.9882-69.981-5.9882-108 0-103.32 16.335-179.65 49.004-229.01l128.98 12.012 24.024-73.985zm117 527.99c-26.681-16.689-53.363-25.016-80.008-25.016-26.008 0-51.52 7.3347-76.501 22.004-25.016 14.669-45.178 33.343-60.52 56.02-51.308-36-84.331-66.012-99.001-90.001l-34.973 25.973 165.97 175c61.335-77.316 123.02-131.99 185.03-163.99z"
        /></glyph
      >
  </font
    >
  <style
        id="style223"
        type="text/css"
      >
    @font-face { font-family:"Chow Fun";src:url("#FontID0") format(svg)}
    .str0 {stroke:#1F1A17;stroke-width:0.0762}
    .str2 {stroke:white;stroke-width:0.0762}
    .str4 {stroke:white;stroke-width:0.1764}
    .str9 {stroke:white;stroke-width:0.1764;stroke-linecap:round;stroke-linejoin:round}
    .str6 {stroke-width:21.5999}
    .str7 {stroke-width:27.0002}
    .str1 {stroke-width:30.8577}
    .str3 {stroke-width:50.0028}
    .str5 {stroke-width:62.5044}
    .str8 {stroke-width:62.5044;stroke-linecap:round;stroke-linejoin:round}
    .fil1 {fill:none}
    .fil5 {fill:#0093DD}
    .fil6 {fill:#1F1A17}
    .fil2 {fill:#7BC4A0}
    .fil4 {fill:#DA251D}
    .fil3 {fill:#FFFCC8}
    .fil0 {fill:white}
    .fnt5 {font-weight:normal;font-size:1.4111;font-family:'Chow Fun'}
    .fnt0 {font-weight:normal;font-size:2.4694;font-family:'Chow Fun'}
    .fnt2 {font-weight:normal;font-size:2.8222;font-family:'Chow Fun'}
    .fnt1 {font-weight:normal;font-size:3.5278;font-family:'Chow Fun'}
    .fnt3 {font-weight:normal;font-size:4.2333;font-family:'Chow Fun'}
    .fnt4 {font-variant:small-caps;font-weight:normal;font-size:2.8222;font-family:'Chow Fun'}
  </style
    >
   <style
        id="style127"
        type="text/css"
      >
    @font-face { font-family:"Chow Fun";src:url("#FontID0") format(svg)}
    .str0 {stroke:#1F1A17;stroke-width:0.0762}
    .str2 {stroke:#1F1A17;stroke-width:0.1764}
    .str4 {stroke:#838281;stroke-width:0.1764}
    .str5 {stroke:#1F1A17;stroke-width:0.3528}
    .str1 {stroke-width:50.0028}
    .str3 {stroke-width:55.5591}
    .fil1 {fill:none}
    .fil3 {fill:none;fill-rule:nonzero}
    .fil2 {fill:#1F1A17}
    .fil0 {fill:white}
    .fil4 {fill:#1F1A17;fill-rule:nonzero}
    .fnt1 {font-weight:normal;font-size:3.175;font-family:'Chow Fun'}
    .fnt0 {font-weight:normal;font-size:3.5278;font-family:'Chow Fun'}
  </style
    >
  <font
        id="font5776"
        horiz-origin-x="0"
        horiz-origin-y="0"
        style="stroke-width:50.003;font-weight:400"
        vert-origin-x="0"
        horiz-adv-x="0"
        vert-origin-y="0"
        class="str1"
        vert-adv-y="0"
        font-weight="400"
      >
	<font-face
          id="font-face5778"
          font-family="Chow Fun"
        >
	</font-face
      >
   <missing-glyph
          id="missing-glyph5780"
        ><path
            id="path5782"
            d="m0 0z"
        /></missing-glyph
      >
   <glyph
          id="glyph5784"
          unicode="-"
          horiz-adv-x="328"
        ><path
            id="path5787"
            d="m18.992 340l291.02 10.016-10.016-84c-108.66 0-202.68-13.669-281.98-41.008l0.97638 114.99z"
        /></glyph
      >
   <glyph
          id="glyph5789"
          unicode=" "
          horiz-adv-x="309"
      />
   <glyph
          id="glyph5791"
          unicode="I"
          horiz-adv-x="293"
        ><path
            id="path5793"
            d="m253.01 17.008l-169.01-79.024c-21.984 74.016-33.008 163.68-33.008 269.01 0 227.34 32.346 439.02 97.008 635.02l80-35.024c-27.339-83.339-41.008-181.98-41.008-296 0-173.32 22.016-337.98 66.016-493.98z"
        /></glyph
      >
   <glyph
          id="glyph5795"
          unicode="H"
          horiz-adv-x="889"
        ><path
            id="path5797"
            d="m848.01 554c0.65196-23.329 0.99212-46.006 0.99212-68.003 0-132.01-22.337-303.33-67.011-514l-69.987 10.006c21.997 63.326 32.995 137 32.995 220.99 0 186.69-40.677 379.67-122 579l179.01 70.015c28.006-117.32 43.342-216.68 46.006-298zm-187-64.006l-50.003-158.99c-34.668 24.009-84.67 43.001-150.01 57.004-57.996 12.671-115.34 18.992-172 18.992-15.987 0-30.671-0.65196-43.993-1.9842l-4.9889 63.978c77.329 37.332 158.99 56.012 245 56.012 50.655 0 109.33-11.679 176-35.008zm-376.01-468l-179.01-83.99c-37.984 44.674-56.976 127.67-56.976 248.99 0 183.34 32.315 399.99 97.001 650.01l58.989-30.019c-24.009-93.996-36-189.32-36-285.99 0-85.351 9.3259-171.01 28.006-257.02 20.664-95.328 50.003-176 87.987-241.99z"
        /></glyph
      >
   <glyph
          id="glyph5799"
          unicode="N"
          horiz-adv-x="877"
        ><path
            id="path5801"
            d="m852 525c0-176.65-42.661-365.02-128.01-565l-69.987 25.001c35.32 82.006 53.008 174.33 53.008 277 0 128.66-21.005 246.67-63.014 353.99-25.342 11.338-54 17.008-86.003 17.008-98.673 0-207.32-39.004-326.01-117.01l5.0173 80.022c70.667 63.326 151.65 115.65 242.98 156.98 98.021 44.674 191.03 68.683 279.01 72 61.993-68.003 93.004-167.98 93.004-299.99zm-579.99-520.01l-189.01-79.993c-23.329 84.018-35.008 187.68-35.008 311.02 0 209.99 43.001 404.64 129 583.99l50.003-39.997c-30.671-100.66-46.006-216.68-46.006-348.01 0-162 30.33-304.33 91.02-427.01z"
        /></glyph
      >
   <glyph
          id="glyph5803"
          unicode="L"
          horiz-adv-x="694"
        ><path
            id="path5805"
            d="m707.01 256l-60.009-269.01c-45.326-15.335-99.666-22.989-162.99-22.989-67.351 0-130.68 10.998-190 32.995l-35.008 110.01c32.655-14.683 73.332-21.997 122-21.997 123.34 0 231.99 56.976 326.01 170.98zm-453-228.98l-203.02-65.026c-12.671 94.677-18.992 189.01-18.992 283.01 0 248.68 32.655 452.66 97.993 612l64.998-39.997c-24.661-89.319-36.992-184.34-36.992-284.99 0-187.34 32.003-355.66 96.009-504.99z"
        /></glyph
      >
   <glyph
          id="glyph5807"
          unicode="B"
          horiz-adv-x="859"
        ><path
            id="path5809"
            d="m693.01 654.02c0-48-30.677-98.677-92-152-54.016-46.016-120-85.669-198.02-119.02-75.339-32-136.32-46.992-182.99-44.976l-5.0079 64c72.661 16 134.33 38.331 185.01 66.992 72.661 41.323 109.01 89.984 109.01 145.98 0 27.339-13.354 49.669-40 67.024-23.339 14.646-49.354 21.984-78.016 21.984-44.661 0-98.331-14.331-160.98-42.992v73.984c95.307 50.016 180 75.024 253.98 75.024 51.339 0 97.323-13.008 138.02-39.024 47.307-29.323 70.992-68.315 70.992-116.98zm153.01-376c0-83.339-41.354-158.36-124-225.01-78.016-62.016-159.68-93.008-245.01-93.008-37.354 0-74.677 4-112 12-46.677 9.9842-80 24.346-100 42.992v54.016c60.661-13.354 114.65-20 161.98-20 62.016 0 116 18.992 162.02 57.008 48.661 40.661 73.008 91.307 73.008 152 0 33.984-11.528 65.165-34.52 93.48-22.992 28.346-51.15 46.835-84.504 55.496l85.008 65.008c58.677-2.6772 108.66-20.661 150.02-53.984 45.323-36.693 68-83.339 68-140zm-626.02-278.02l-173.98-70.016c-3.3386 53.354-5.0079 119.34-5.0079 198.02 0 293.32 31.654 522.33 94.992 686.99l64-34.992c-25.323-104-37.984-225.67-37.984-365.01 0-151.34 19.307-289.67 57.984-414.99z"
        /></glyph
      >
   <glyph
          id="glyph5811"
          unicode="E"
          horiz-adv-x="838"
        ><path
            id="path5813"
            d="m823.01 690l-104-144c-17.348 55.332-56.324 97.341-117.01 126-50.655 23.981-109.33 36-176 36-17.32 0-33.987-0.99212-49.974-3.0047 27.326 21.997 54.652 43.653 81.977 64.998 25.342 16.016 57.004 24.009 95.017 24.009 46.006 0 93.996-10.006 144-30.019 47.99-18.652 89.999-43.313 126-73.984zm-248-238l-89.999-139.01c-15.335 38.664-62.674 57.996-142.02 57.996-33.987 0-65.99-3.0047-95.98-8.9858l9.9779 69.987c61.341 34.668 122.68 52.015 184.02 52.015 54.652 0 99.325-10.686 133.99-32.003zm273-363c-93.344-88.667-207.35-133-342-133-136.69 0-249.02 32.315-337.01 97.001-98.673 72-148 173.99-148 306 0 100.66 34.668 192.67 104 276.01 73.984 88.667 161.01 133.65 260.98 134.98-59.329-48.671-105-108.65-137-180-30.671-68.655-46.006-142.33-46.006-220.99 0-101.34 28.176-182.01 84.5-242.02 56.352-59.981 134.5-89.999 234.51-89.999 58.677 0 113.67 10.998 165 32.995 57.344 24.69 101 59.357 130.99 104l30.019-84.982z"
        /></glyph
      >
   <glyph
          id="glyph5815"
          unicode="A"
          horiz-adv-x="1018"
        ><path
            id="path5817"
            d="m997.99-4.9889l-177.99-64.998c0.65196 157.32-12.671 304.98-39.997 443-41.329 207.32-107.66 324.65-198.99 352l84.982 19.984c104-65.338 186.66-176.65 248-334 52.015-133.31 79.993-271.98 83.99-415.98zm-277.99 376.98l-43.993-153.98c-32.655 49.322-99.666 73.984-201 73.984-65.338 0-129.34-7.9936-191.99-23.981l4.9889 49.974c64.658 57.344 147.34 86.003 248 86.003 68.003 0 129.34-10.658 184-32.003zm-108.99 418.02c-136.66-24.009-239.33-115-308.01-273-54.652-124.67-82.006-271.33-82.006-440.02 0-26.646 0.68031-52.327 2.0126-76.988l-187.99-60.009-3.0047 79.001c-4.6771 131.33 19.672 255.34 72.992 372.02 53.348 116.64 131.02 218.66 233.01 306 18 14.655 43.653 33.987 76.988 57.996 42.009 29.99 67.691 44.986 77.017 44.986 0 0 39.656-3.3165 119-9.9779z"
        /></glyph
      >
   <glyph
          id="glyph5819"
          unicode="C"
          horiz-adv-x="863"
        ><path
            id="path5821"
            d="m845 705l-100.01-164.01c-49.322 108.68-134.98 163.02-256.99 163.02-38.664 0-72.34-4.6771-101-14.003 23.329 27.326 46.318 54.34 68.995 80.985 21.997 20.012 52.327 30.019 90.992 30.019 89.999 0 189.32-32.003 298-96.009zm39.004-571.01c-48.671-55.332-106.33-98.333-173-129-66.67-30.642-136.69-45.978-210.02-45.978-133.99 0-245.99 34.668-335.99 104-98.673 75.996-148 178.98-148 308.97 0 89.348 40.337 178.67 120.98 268.01 82.686 92.664 167.36 137.68 254.01 134.98h10.006c-135.35-116.64-203.02-239.33-203.02-367.99 0-97.993 32.995-181.5 99.014-250.5 65.99-68.995 148-103.49 245.99-103.49 106.67 0 210.33 51.647 311.02 155l28.998-74.012z"
        /></glyph
      >
   <glyph
          id="glyph5823"
          unicode="T"
          horiz-adv-x="704"
        ><path
            id="path5825"
            d="m754.01 734.99l-104-137.99c-105.34 60.661-213.02 90.992-323.01 90.992-111.34 0-203.67-23.981-277-72l-45.014 56.012c117.35 93.996 252.68 140.99 406 140.99 128.66 0 243.01-25.994 343.02-78.009zm-317.02-677.99l-170.98-104c-74.664 71.319-112 158.65-112 262 0 69.987 17.008 145.98 50.995 227.99 32.003 75.344 72.34 143.01 121.01 203.02l77.981-10.998c-65.338-72.68-97.993-154.69-97.993-246.02 0-55.984 12.331-115 36.992-176.99 24.69-59.329 56.012-111 93.996-155z"
        /></glyph
      >
   <glyph
          id="glyph5827"
          unicode="R"
          horiz-adv-x="939"
        ><path
            id="path5829"
            d="m708 661.01c0-91.332-60.661-161.01-182.01-209-89.319-35.348-187.65-53.688-295-55.02l5.0173 75.004c8.6456-5.3291 20.976-7.9936 36.992-7.9936 51.335 0 104 14.995 158 45.014 61.993 34.639 93.004 75.316 93.004 121.97 0 26.022-16.668 46.686-50.003 62.022-25.994 11.99-54 18-84.018 18-45.978 0-100.66-10.346-163.98-31.011l10.006 70.015c19.332 18 59.329 32.655 119.99 43.993 48.671 9.3259 93.004 14.003 133 14.003 146.01 0 219-49.011 219-147zm238-656.02l-223.99-74.976c4.6488 18 7.0015 36 7.0015 54 0 70.667-33.675 145.98-101 225.98-54.68 64.686-119.34 120.33-194 167.02 66.67 16.668 99.977 25.001 99.977 25.001 80.674 0 165.34-47.338 254.01-142.02 78.009-83.99 130.68-169 158-255zm-691 10.006l-169-84.982c-36 119.99-54 258.66-54 415.98 0 176 29.65 334 89.007 474.01l74.976-35.008c-23.329-86.655-34.979-189.32-34.979-307.98 0-172.69 31.323-326.69 93.996-462.02z"
        /></glyph
      >
   <glyph
          id="glyph5831"
          unicode="a"
          horiz-adv-x="656"
        ><path
            id="path5833"
            d="m660-8c-21.984-8-42.992-12-62.992-12-68 0-112 30.992-132 93.008-10.677 64-21.354 128-32 192-17.354 78.646-55.339 130.99-114.02 157.01l131.02 54.992c51.307-19.339 85.638-70.677 102.99-154.02 9.3228-72 18.646-144 28-216 12-73.984 38.331-112.32 78.992-114.99zm-289.98 490.99c-70.016-16.661-155.68-67.654-257.01-152.98l-70.016 80c26.016 28.661 59.181 51.811 99.496 69.48 40.346 17.669 79.842 26.52 118.52 26.52 36.661 0 73.008-7.685 109.01-23.024zm45.984-440.98c-17.984-20-49.984-35.024-96-45.008-36-8-72.346-12-109.01-12-36 0-71.654 13.984-106.99 41.984-37.984 30.016-56.346 62.677-54.992 98.016 1.3228 46.646 31.339 88 89.984 124 52.661 32.661 103.68 49.008 153.01 49.008 32 0 64-5.6693 96-17.008l-1.9842-62.016c-8 2.0158-17.354 3.0236-28 3.0236-31.339 0-63.024-6.6772-95.024-20-39.339-17.354-59.339-39.685-60-67.024-0.66142-21.323 7.0236-39.496 23.024-54.488s34.331-22.488 54.992-22.488c32.661 0 70.331 16.976 113.01 50.992l21.984-66.992z"
        /></glyph
      >
   <glyph
          id="glyph5835"
          unicode="m"
          horiz-adv-x="899"
        ><path
            id="path5837"
            d="m846.99 269.01c0-109.35-24-205.67-72-289.01l-72.976 13.008c21.984 63.339 32.976 127.34 32.976 192 0 78.646-21.323 135.34-64 169.98l-97.984 6.0158-25.008 66.992c38.016 28.661 124 59.339 258.02 92 27.307-73.323 40.976-157.01 40.976-250.99zm-320.98-13.008c0-105.32-19.024-201.32-57.008-288l-56 30.992c13.984 39.339 21.008 80 21.008 122.02 0 93.323-25.354 175.34-76 245.98l-129.01-5.9842-12 61.008c49.984 49.323 127.65 85.984 233.01 109.98 50.646-77.984 76-169.98 76-276zm-303.02-157.01c0-52.661-1.9842-98.331-5.9842-137.01l-166.02 49.008c35.339 58.677 53.008 132.35 53.008 221.01 0 88.661-13.323 172.35-40 250.99l61.008 25.008c65.323-81.323 97.984-217.67 97.984-409.01z"
        /></glyph
      >
   <glyph
          id="glyph5839"
          unicode="l"
          horiz-adv-x="274"
        ><path
            id="path5841"
            d="m236 792c-39.339-109.32-58.992-241.98-58.992-397.98 0-130.02 17.669-255.02 53.008-375.02-36.693-36.661-93.669-54.992-171.02-54.992-4 48.661-5.9842 108.35-5.9842 178.99 0 319.34 40.661 548 121.98 686.02l61.008-37.008z"
        /></glyph
      >
   <glyph
          id="glyph5843"
          unicode="o"
          horiz-adv-x="615"
        ><path
            id="path5845"
            d="m592 256c0-66.677-29.008-125.98-86.992-177.98-51.339-46.677-112-77.354-182.02-92.032 34.677 26.677 63.339 60.032 86.016 100.03 24 42.646 36 84.976 36 126.99 0 45.323-9.3543 91.339-28 137.98-24 59.339-55.339 87.024-94.016 83.024l73.008 54.992c61.323-5.3543 110.02-30.331 146.02-74.992 33.323-42.677 49.984-95.339 49.984-158.02zm-269.01-196l-73.984-68c-58.016-2.0158-106.99 19.654-146.99 65.008-37.354 42.646-56 93.323-56 152 0 81.984 24.976 149.01 74.992 201.01 48 50.646 113.01 80.976 194.99 90.992-48.661-60.661-78.992-102.02-90.992-124-21.354-41.354-32-92-32-152 0-44 7.6535-81.008 22.992-110.99 19.339-37.354 48-56 86.016-56 6.6457 0 13.638 0.66142 20.976 1.9842z"
        /></glyph
      >
   <glyph
          id="glyph5847"
          unicode="c"
          horiz-adv-x="590"
        ><path
            id="path5849"
            d="m546.99 428l-109.98-97.984c-12 25.323-30.016 46.331-54.016 62.992s-49.669 25.008-76.976 25.008c-8 0-15.685-0.69291-23.024-2.0158l80 78.992c12.661 2.6772 25.354 4 38.016 4 59.339 0 108-23.654 145.98-70.992zm6.0158-356c-22.677-28-62.677-50.677-120-68-48-14.016-94.677-21.008-140-21.008-73.354 0-133.35 19.024-180 57.008-50.016 40.661-74.992 96.661-74.992 168 0 76 25.984 140.66 77.984 194.02 46.016 47.307 108 82.646 186.02 105.98-32.693-32.661-60.693-72.346-84-118.99-26.016-51.339-39.024-97.669-39.024-138.99 0-38.677 17.354-78.016 52-118.02 34.677-40 71.339-60 110.02-60 86.646 0 149.32 30.677 188 92l24-92z"
        /></glyph
      >
   <glyph
          id="glyph5851"
          unicode="e"
          horiz-adv-x="646"
        ><path
            id="path5853"
            d="m594.02 333.01c0-52-26.362-93.669-79.024-125.01-45.323-26.677-95.654-39.339-150.99-37.984h-33.984l-43.024 85.984c15.339-11.339 34.016-17.008 56-17.008 24.661 0 47.685 7.0236 69.008 21.008 24 15.339 36 34.992 36 58.992 0 24.661-10.173 46.016-30.488 64-20.346 18.016-43.181 29.008-68.504 33.008 4 17.323 21.984 34.331 53.984 50.992 28.661 14.677 53.354 22.016 74.016 22.016 33.323 0 61.984-18.331 85.984-54.992 20.661-32.693 31.024-66.362 31.024-101.01zm-6.0158-273.01c-55.339-60-132.66-90.016-232-90.016-205.32 0-308 85.008-308 255.02 0 70.646 35.339 133.32 106.02 188 65.984 50.646 134.99 76 206.99 76-109.35-84-164-168-164-252 0-50.677 17.008-96 50.992-136 36-42.016 78.992-62.992 129.01-62.992 65.323 0 129.32 33.984 192 101.98l18.992-80z"
        /></glyph
      >
   <glyph
          id="glyph5855"
          unicode="i"
          horiz-adv-x="262"
        ><path
            id="path5857"
            d="m268 758.99c0-20.661-6.6772-38.992-20-54.992-14.677-17.984-32-26.992-52-26.992-15.339 0-27.654 5.8268-37.008 17.48-9.3228 11.685-13.984 25.165-13.984 40.504 0 20 6.9921 38.52 21.008 55.496 13.984 17.008 30.992 25.512 50.992 25.512 15.339 0 27.654-5.6693 37.008-17.008 9.3228-11.339 13.984-24.661 13.984-40zm-30.992-710.99l-146.99-98.992c-28.693 45.984-43.024 118.65-43.024 217.98 0 114.02 14.331 233.67 43.024 359.02l68-12c-8-38.677-12-77.669-12-117.01 0-59.339 8-119.68 24-181.01 16-64.661 38.331-120.66 66.992-168z"
        /></glyph
      >
   <glyph
          id="glyph5859"
          unicode="d"
          horiz-adv-x="634"
        ><path
            id="path5861"
            d="m605.01 533.01c0-138.02-14.016-270.68-42.016-398.02l-85.984-12.976c17.984 62.646 26.992 131.31 26.992 205.98 0 154.68-31.339 298.33-93.984 430.99l146.99 80c32-77.984 48-180 48-305.98zm-64-454.99l-12-73.008c-62.677-20-126.68-30.016-192-30.016-79.339 0-148.66 21.008-208 63.024-66.677 46.646-100 108.32-100 184.98 0 71.339 37.323 135.68 112 193.01 69.323 52.661 141.01 78.992 214.99 78.992 27.339 0 53.323-4 78.016-12v-66.992c-18.016 2.6772-35.339 4-52 4-54.016 0-101.35-17.669-142.02-53.008-41.984-37.323-62.992-82.331-62.992-134.99 0-56.661 26.992-99.339 81.008-128 42.646-23.339 94.992-34.992 156.98-34.992 44 0 86.016 2.9921 126.02 9.0079z"
        /></glyph
      >
   <glyph
          id="glyph5863"
          unicode="n"
          horiz-adv-x="618"
        ><path
            id="path5865"
            d="m562.02 297.01c0-116-20.346-226.33-61.008-331.02l-68 24c17.323 38.016 25.984 86.016 25.984 144.03 0 80-20.661 153.32-61.984 220-42.677 8.6614-80 12.976-112 12.976-24.661 0-42.677-2.3307-54.016-6.9921l-5.9842 62.016c92 65.984 180.32 96.976 265.01 92.976l22.992-0.97638c32.661-58.677 49.008-131.02 49.008-217.01zm-343.02-161.01c0-72.661-4.315-129.32-12.976-170.02l-153.01 55.024c38.646 107.34 57.984 214.33 57.984 321.01 0 63.307-6.9921 112.32-20.976 146.99l72.976 25.008c37.354-127.34 56-253.35 56-378.02z"
        /></glyph
      >
   <glyph
          id="glyph5867"
          unicode="p"
          horiz-adv-x="599"
        ><path
            id="path5869"
            d="m576 258.99c0-59.339-37.008-116.66-110.99-172-69.354-52.661-134.33-78.992-194.99-78.992-18.677 0-40 2.0158-64 6.0158l-6.0158 72.976c20.661-5.3228 40.661-8 60-8 50.677 0 92.661 24.346 126.02 73.008 29.323 44 44 92.661 44 146.02 0 31.307-12.693 58.803-38.016 82.488-25.323 23.654-53.669 35.496-85.008 35.496-30.646 0-64.315-9.3228-100.98-28l6.9921 80c45.984 28 90.646 42.016 133.98 42.016 60.661 0 114.02-26.52 160-79.528 46.016-52.976 69.008-110.14 69.008-171.5zm-376-526.99l-153.01-74.016c-10.646 75.339-16 169.35-16 282.02 0 212 23.685 408.35 71.024 589.01l68-25.008c-18.677-91.339-28-200.35-28-326.99 0-162.68 19.307-311.02 57.984-445.01z"
        /></glyph
      >
   <glyph
          id="glyph5871"
          unicode="t"
          horiz-adv-x="447"
        ><path
            id="path5873"
            d="m436 465.01l-37.008-92-102.99 33.008 5.0079 64.976 134.99-5.9842zm-49.984-350.02c-77.354-77.323-153.01-120-227.02-128-21.984 64-32.976 143.02-32.976 237.01 0 64.661 4.9764 125.32 14.992 182.02l-134.02-4-6.9921 74.992 158.99 25.008c16.661 66.646 37.354 140.32 62.016 220.98l73.008-24.976c-34.016-96-51.024-201.35-51.024-316 0-93.354 9.0079-174.02 27.024-242.02l92 37.008 24-62.016z"
        /></glyph
      >
   <glyph
          id="glyph5875"
          unicode="r"
          horiz-adv-x="457"
        ><path
            id="path5877"
            d="m481.01 485.01l-80-146.99c-32 28-70.992 41.984-117.01 41.984-33.984 0-66.677-9.9842-97.984-29.984l-6.0158 80c86.677 55.307 162.02 82.992 226.02 82.992 32.661 0 57.638-9.3543 74.992-28zm-264-441.01l-160-86.016c-17.354 72.032-26.016 155.34-26.016 250.02 0 116 17.008 218.68 51.024 308l60.976-25.008c-15.339-39.339-22.992-88.661-22.992-148 0-108 32.346-207.65 97.008-298.99z"
        /></glyph
      >
   <glyph
          id="glyph5879"
          unicode="s"
          horiz-adv-x="510"
        ><path
            id="path5881"
            d="m434.99 462.02l-60.976-89.008c-16 36.661-54.677 59.339-116 68l42.992 49.008c21.323 2.6457 37.008 4 46.992 4 23.339 0 52.346-10.677 86.992-32zm37.008-317.01c0-44-23.654-80.346-70.992-109.01-37.354-22.677-81.008-37.008-130.99-42.992 49.323 36.661 73.984 75.339 73.984 116 0 35.339-24.661 65.323-73.984 89.984-46.016 20-92 40-138.02 60-49.323 26.016-73.984 58.677-73.984 98.016 0 36.661 17.323 69.008 52 97.008 32.661 26.646 68 40 105.98 40 12 0 24-1.3543 36-4-36.661-34.016-54.992-63.685-54.992-89.008 0-19.339 23.654-40.346 70.992-62.992 71.339-33.354 115.34-56.346 132-69.008 48-34.016 72-75.339 72-124zm-208-85.008c-13.323-12.661-26.677-25.669-40-38.992-19.339-17.354-34.677-26.016-45.984-26.016-38.016 0-97.354 25.669-178.02 77.008l92 92c49.323-61.323 106.68-96 172-104z"
        /></glyph
      >
   <glyph
          id="glyph5883"
          unicode="z"
          horiz-adv-x="613"
        ><path
            id="path5885"
            d="m546.02 409.01c-25.354-58.016-117.35-150.02-276-276l-68 37.008c65.323 41.323 112.66 106.99 141.98 196.98-53.984 16-136 24-245.98 24l-24 68c62.646 16 130.99 24 204.98 24 114.68 0 203.68-24.661 267.02-73.984zm60.976-337.01c-36-32-84.661-57.323-145.98-76-54.677-16-109.35-24-164-24-96 0-194.99 22.992-297.01 69.008l153.01 98.992c83.339-44.661 165.98-66.992 248-66.992 65.323 0 117.67 17.984 157.01 53.984l48.976-54.992z"
        /></glyph
      >
   <glyph
          id="glyph5887"
          unicode="u"
          horiz-adv-x="586"
        ><path
            id="path5889"
            d="m553.01 465.01c-46.677-78.677-70.016-176.66-70.016-294.02 0-47.339 5.0079-94.646 15.024-141.98l-67.024-31.024c-37.323 88.032-56 187.68-56 299.02 0 85.323 14.331 163.65 43.024 234.99l134.99-66.992zm-190.02-381.01c-57.323-44.661-149.32-77.323-276-98.016-24.661 66.677-36.976 147.02-36.976 241.01 0 106.68 20.661 206.33 61.984 299.02l54.992-43.024c-4-33.984-5.9842-69.984-5.9842-108 0-103.34 16.315-179.65 49.008-228.98l128.98 12 24-74.016z"
        /></glyph
      >
   <glyph
          id="glyph5891"
          unicode="q"
          horiz-adv-x="622"
        ><path
            id="path5893"
            d="m586.02 480c-40-130.68-60-275.34-60-433.98 0-115.34 13.984-220.03 41.984-314.02l-153.98-110.99c-14.677 64-22.016 145.98-22.016 245.98 0 225.35 46.331 440 138.99 644l55.024-30.992zm-123.02 0l-36.976-68c-23.339 10.677-46.016 16-68 16-50.016 0-91.685-26.677-125.01-80-29.354-45.984-44-96-44-149.98 0-37.354 10.835-68 32.504-92s51.15-36 88.504-36c19.307 0 33.638 3.6535 42.992 10.992v-86.016c-28-9.9842-55.339-14.992-82.016-14.992-64 0-118.99 24.158-164.98 72.504-46.016 48.315-69.008 104.82-69.008 169.51 0 74.646 28.315 141.64 85.008 200.98 56.661 59.339 122.33 89.008 196.98 89.008 52.661 0 100.66-10.677 144-32z"
        /></glyph
      >
   <glyph
          id="glyph5895"
          unicode="é"
          horiz-adv-x="646"
        ><path
            id="path5897"
            d="m594.02 333.01c0-52-26.362-93.669-79.024-125.01-45.984-26.677-96.315-39.339-150.99-37.984h-33.984l-43.024 85.984c15.339-11.339 34.016-17.008 56-17.008 24.661 0 47.685 7.0236 69.008 21.008 24 15.339 36 34.992 36 58.992 0 24.661-10.173 46.016-30.488 64-20.346 18.016-43.181 29.008-68.504 33.008 4 17.323 21.984 34.331 53.984 50.992 28.661 14.677 53.354 22.016 74.016 22.016 33.323 0 61.984-18.331 85.984-54.992 20.661-32.693 31.024-66.362 31.024-101.01zm-6.0158-273.01c-55.339-60-132.66-90.016-232-90.016-205.32 0-308 85.008-308 255.02 0 70.646 35.339 133.32 106.02 188 65.984 50.646 134.99 76 206.99 76-109.35-84-164-168-164-252 0-50.677 17.008-96 50.992-136 36-42.016 78.992-62.992 129.01-62.992 65.323 0 129.32 33.984 192 101.98l18.992-80zm-118.99 616c-53.354-1.3228-106.33-9.3228-158.99-24-60-16.661-108.35-39.339-145.01-68 17.323 48.661 49.008 90.992 94.992 126.99 43.339 34.016 91.339 56 144 66.016l65.008-101.01z"
        /></glyph
      >
  </font
    >
   <style
        id="style6494"
        type="text/css"
      >
    @font-face { font-family:"Chow Fun";src:url("#FontID0") format(svg)}
    .str0 {stroke:#1F1A17;stroke-width:0.0762}
    .str2 {stroke:#1F1A17;stroke-width:0.1764}
    .str4 {stroke:#838281;stroke-width:0.1764}
    .str5 {stroke:#1F1A17;stroke-width:0.3528}
    .str1 {stroke-width:50.0028}
    .str3 {stroke-width:55.5591}
    .fil1 {fill:none}
    .fil3 {fill:none;fill-rule:nonzero}
    .fil2 {fill:#1F1A17}
    .fil0 {fill:white}
    .fil4 {fill:#1F1A17;fill-rule:nonzero}
    .fnt1 {font-weight:normal;font-size:3.175;font-family:'Chow Fun'}
    .fnt0 {font-weight:normal;font-size:3.5278;font-family:'Chow Fun'}
  </style
    >
  <font
        id="font6371"
        horiz-origin-x="0"
        horiz-origin-y="0"
        style="stroke-width:50.003;font-weight:400"
        vert-origin-x="0"
        horiz-adv-x="0"
        vert-origin-y="0"
        class="str1"
        vert-adv-y="0"
        font-weight="400"
      >
	<font-face
          id="font-face6373"
          font-family="Chow Fun"
        >
	</font-face
      >
   <missing-glyph
          id="missing-glyph6375"
        ><path
            id="path6377"
            d="m0 0z"
        /></missing-glyph
      >
   <glyph
          id="glyph6379"
          unicode="-"
          horiz-adv-x="328"
        ><path
            id="path6381"
            d="m18.992 340l291.02 10.016-10.016-84c-108.66 0-202.68-13.669-281.98-41.008l0.97638 114.99z"
        /></glyph
      >
   <glyph
          id="glyph6383"
          unicode=" "
          horiz-adv-x="309"
      />
   <glyph
          id="glyph6385"
          unicode="I"
          horiz-adv-x="293"
        ><path
            id="path6387"
            d="m253.01 17.008l-169.01-79.024c-21.984 74.016-33.008 163.68-33.008 269.01 0 227.34 32.346 439.02 97.008 635.02l80-35.024c-27.339-83.339-41.008-181.98-41.008-296 0-173.32 22.016-337.98 66.016-493.98z"
        /></glyph
      >
   <glyph
          id="glyph6389"
          unicode="H"
          horiz-adv-x="889"
        ><path
            id="path6391"
            d="m848.01 554c0.65196-23.329 0.99212-46.006 0.99212-68.003 0-132.01-22.337-303.33-67.011-514l-69.987 10.006c21.997 63.326 32.995 137 32.995 220.99 0 186.69-40.677 379.67-122 579l179.01 70.015c28.006-117.32 43.342-216.68 46.006-298zm-187-64.006l-50.003-158.99c-34.668 24.009-84.67 43.001-150.01 57.004-57.996 12.671-115.34 18.992-172 18.992-15.987 0-30.671-0.65196-43.993-1.9842l-4.9889 63.978c77.329 37.332 158.99 56.012 245 56.012 50.655 0 109.33-11.679 176-35.008zm-376.01-468l-179.01-83.99c-37.984 44.674-56.976 127.67-56.976 248.99 0 183.34 32.315 399.99 97.001 650.01l58.989-30.019c-24.009-93.996-36-189.32-36-285.99 0-85.351 9.3259-171.01 28.006-257.02 20.664-95.328 50.003-176 87.987-241.99z"
        /></glyph
      >
   <glyph
          id="glyph6393"
          unicode="N"
          horiz-adv-x="877"
        ><path
            id="path6395"
            d="m852 525c0-176.65-42.661-365.02-128.01-565l-69.987 25.001c35.32 82.006 53.008 174.33 53.008 277 0 128.66-21.005 246.67-63.014 353.99-25.342 11.338-54 17.008-86.003 17.008-98.673 0-207.32-39.004-326.01-117.01l5.0173 80.022c70.667 63.326 151.65 115.65 242.98 156.98 98.021 44.674 191.03 68.683 279.01 72 61.993-68.003 93.004-167.98 93.004-299.99zm-579.99-520.01l-189.01-79.993c-23.329 84.018-35.008 187.68-35.008 311.02 0 209.99 43.001 404.64 129 583.99l50.003-39.997c-30.671-100.66-46.006-216.68-46.006-348.01 0-162 30.33-304.33 91.02-427.01z"
        /></glyph
      >
   <glyph
          id="glyph6397"
          unicode="L"
          horiz-adv-x="694"
        ><path
            id="path6399"
            d="m707.01 256l-60.009-269.01c-45.326-15.335-99.666-22.989-162.99-22.989-67.351 0-130.68 10.998-190 32.995l-35.008 110.01c32.655-14.683 73.332-21.997 122-21.997 123.34 0 231.99 56.976 326.01 170.98zm-453-228.98l-203.02-65.026c-12.671 94.677-18.992 189.01-18.992 283.01 0 248.68 32.655 452.66 97.993 612l64.998-39.997c-24.661-89.319-36.992-184.34-36.992-284.99 0-187.34 32.003-355.66 96.009-504.99z"
        /></glyph
      >
   <glyph
          id="glyph6401"
          unicode="B"
          horiz-adv-x="859"
        ><path
            id="path6403"
            d="m693.01 654.02c0-48-30.677-98.677-92-152-54.016-46.016-120-85.669-198.02-119.02-75.339-32-136.32-46.992-182.99-44.976l-5.0079 64c72.661 16 134.33 38.331 185.01 66.992 72.661 41.323 109.01 89.984 109.01 145.98 0 27.339-13.354 49.669-40 67.024-23.339 14.646-49.354 21.984-78.016 21.984-44.661 0-98.331-14.331-160.98-42.992v73.984c95.307 50.016 180 75.024 253.98 75.024 51.339 0 97.323-13.008 138.02-39.024 47.307-29.323 70.992-68.315 70.992-116.98zm153.01-376c0-83.339-41.354-158.36-124-225.01-78.016-62.016-159.68-93.008-245.01-93.008-37.354 0-74.677 4-112 12-46.677 9.9842-80 24.346-100 42.992v54.016c60.661-13.354 114.65-20 161.98-20 62.016 0 116 18.992 162.02 57.008 48.661 40.661 73.008 91.307 73.008 152 0 33.984-11.528 65.165-34.52 93.48-22.992 28.346-51.15 46.835-84.504 55.496l85.008 65.008c58.677-2.6772 108.66-20.661 150.02-53.984 45.323-36.693 68-83.339 68-140zm-626.02-278.02l-173.98-70.016c-3.3386 53.354-5.0079 119.34-5.0079 198.02 0 293.32 31.654 522.33 94.992 686.99l64-34.992c-25.323-104-37.984-225.67-37.984-365.01 0-151.34 19.307-289.67 57.984-414.99z"
        /></glyph
      >
   <glyph
          id="glyph6405"
          unicode="E"
          horiz-adv-x="838"
        ><path
            id="path6407"
            d="m823.01 690l-104-144c-17.348 55.332-56.324 97.341-117.01 126-50.655 23.981-109.33 36-176 36-17.32 0-33.987-0.99212-49.974-3.0047 27.326 21.997 54.652 43.653 81.977 64.998 25.342 16.016 57.004 24.009 95.017 24.009 46.006 0 93.996-10.006 144-30.019 47.99-18.652 89.999-43.313 126-73.984zm-248-238l-89.999-139.01c-15.335 38.664-62.674 57.996-142.02 57.996-33.987 0-65.99-3.0047-95.98-8.9858l9.9779 69.987c61.341 34.668 122.68 52.015 184.02 52.015 54.652 0 99.325-10.686 133.99-32.003zm273-363c-93.344-88.667-207.35-133-342-133-136.69 0-249.02 32.315-337.01 97.001-98.673 72-148 173.99-148 306 0 100.66 34.668 192.67 104 276.01 73.984 88.667 161.01 133.65 260.98 134.98-59.329-48.671-105-108.65-137-180-30.671-68.655-46.006-142.33-46.006-220.99 0-101.34 28.176-182.01 84.5-242.02 56.352-59.981 134.5-89.999 234.51-89.999 58.677 0 113.67 10.998 165 32.995 57.344 24.69 101 59.357 130.99 104l30.019-84.982z"
        /></glyph
      >
   <glyph
          id="glyph6409"
          unicode="A"
          horiz-adv-x="1018"
        ><path
            id="path6411"
            d="m997.99-4.9889l-177.99-64.998c0.65196 157.32-12.671 304.98-39.997 443-41.329 207.32-107.66 324.65-198.99 352l84.982 19.984c104-65.338 186.66-176.65 248-334 52.015-133.31 79.993-271.98 83.99-415.98zm-277.99 376.98l-43.993-153.98c-32.655 49.322-99.666 73.984-201 73.984-65.338 0-129.34-7.9936-191.99-23.981l4.9889 49.974c64.658 57.344 147.34 86.003 248 86.003 68.003 0 129.34-10.658 184-32.003zm-108.99 418.02c-136.66-24.009-239.33-115-308.01-273-54.652-124.67-82.006-271.33-82.006-440.02 0-26.646 0.68031-52.327 2.0126-76.988l-187.99-60.009-3.0047 79.001c-4.6771 131.33 19.672 255.34 72.992 372.02 53.348 116.64 131.02 218.66 233.01 306 18 14.655 43.653 33.987 76.988 57.996 42.009 29.99 67.691 44.986 77.017 44.986 0 0 39.656-3.3165 119-9.9779z"
        /></glyph
      >
   <glyph
          id="glyph6413"
          unicode="C"
          horiz-adv-x="863"
        ><path
            id="path6415"
            d="m845 705l-100.01-164.01c-49.322 108.68-134.98 163.02-256.99 163.02-38.664 0-72.34-4.6771-101-14.003 23.329 27.326 46.318 54.34 68.995 80.985 21.997 20.012 52.327 30.019 90.992 30.019 89.999 0 189.32-32.003 298-96.009zm39.004-571.01c-48.671-55.332-106.33-98.333-173-129-66.67-30.642-136.69-45.978-210.02-45.978-133.99 0-245.99 34.668-335.99 104-98.673 75.996-148 178.98-148 308.97 0 89.348 40.337 178.67 120.98 268.01 82.686 92.664 167.36 137.68 254.01 134.98h10.006c-135.35-116.64-203.02-239.33-203.02-367.99 0-97.993 32.995-181.5 99.014-250.5 65.99-68.995 148-103.49 245.99-103.49 106.67 0 210.33 51.647 311.02 155l28.998-74.012z"
        /></glyph
      >
   <glyph
          id="glyph6417"
          unicode="T"
          horiz-adv-x="704"
        ><path
            id="path6419"
            d="m754.01 734.99l-104-137.99c-105.34 60.661-213.02 90.992-323.01 90.992-111.34 0-203.67-23.981-277-72l-45.014 56.012c117.35 93.996 252.68 140.99 406 140.99 128.66 0 243.01-25.994 343.02-78.009zm-317.02-677.99l-170.98-104c-74.664 71.319-112 158.65-112 262 0 69.987 17.008 145.98 50.995 227.99 32.003 75.344 72.34 143.01 121.01 203.02l77.981-10.998c-65.338-72.68-97.993-154.69-97.993-246.02 0-55.984 12.331-115 36.992-176.99 24.69-59.329 56.012-111 93.996-155z"
        /></glyph
      >
   <glyph
          id="glyph6421"
          unicode="R"
          horiz-adv-x="939"
        ><path
            id="path6423"
            d="m708 661.01c0-91.332-60.661-161.01-182.01-209-89.319-35.348-187.65-53.688-295-55.02l5.0173 75.004c8.6456-5.3291 20.976-7.9936 36.992-7.9936 51.335 0 104 14.995 158 45.014 61.993 34.639 93.004 75.316 93.004 121.97 0 26.022-16.668 46.686-50.003 62.022-25.994 11.99-54 18-84.018 18-45.978 0-100.66-10.346-163.98-31.011l10.006 70.015c19.332 18 59.329 32.655 119.99 43.993 48.671 9.3259 93.004 14.003 133 14.003 146.01 0 219-49.011 219-147zm238-656.02l-223.99-74.976c4.6488 18 7.0015 36 7.0015 54 0 70.667-33.675 145.98-101 225.98-54.68 64.686-119.34 120.33-194 167.02 66.67 16.668 99.977 25.001 99.977 25.001 80.674 0 165.34-47.338 254.01-142.02 78.009-83.99 130.68-169 158-255zm-691 10.006l-169-84.982c-36 119.99-54 258.66-54 415.98 0 176 29.65 334 89.007 474.01l74.976-35.008c-23.329-86.655-34.979-189.32-34.979-307.98 0-172.69 31.323-326.69 93.996-462.02z"
        /></glyph
      >
   <glyph
          id="glyph6425"
          unicode="a"
          horiz-adv-x="656"
        ><path
            id="path6427"
            d="m660-8c-21.984-8-42.992-12-62.992-12-68 0-112 30.992-132 93.008-10.677 64-21.354 128-32 192-17.354 78.646-55.339 130.99-114.02 157.01l131.02 54.992c51.307-19.339 85.638-70.677 102.99-154.02 9.3228-72 18.646-144 28-216 12-73.984 38.331-112.32 78.992-114.99zm-289.98 490.99c-70.016-16.661-155.68-67.654-257.01-152.98l-70.016 80c26.016 28.661 59.181 51.811 99.496 69.48 40.346 17.669 79.842 26.52 118.52 26.52 36.661 0 73.008-7.685 109.01-23.024zm45.984-440.98c-17.984-20-49.984-35.024-96-45.008-36-8-72.346-12-109.01-12-36 0-71.654 13.984-106.99 41.984-37.984 30.016-56.346 62.677-54.992 98.016 1.3228 46.646 31.339 88 89.984 124 52.661 32.661 103.68 49.008 153.01 49.008 32 0 64-5.6693 96-17.008l-1.9842-62.016c-8 2.0158-17.354 3.0236-28 3.0236-31.339 0-63.024-6.6772-95.024-20-39.339-17.354-59.339-39.685-60-67.024-0.66142-21.323 7.0236-39.496 23.024-54.488s34.331-22.488 54.992-22.488c32.661 0 70.331 16.976 113.01 50.992l21.984-66.992z"
        /></glyph
      >
   <glyph
          id="glyph6429"
          unicode="m"
          horiz-adv-x="899"
        ><path
            id="path6431"
            d="m846.99 269.01c0-109.35-24-205.67-72-289.01l-72.976 13.008c21.984 63.339 32.976 127.34 32.976 192 0 78.646-21.323 135.34-64 169.98l-97.984 6.0158-25.008 66.992c38.016 28.661 124 59.339 258.02 92 27.307-73.323 40.976-157.01 40.976-250.99zm-320.98-13.008c0-105.32-19.024-201.32-57.008-288l-56 30.992c13.984 39.339 21.008 80 21.008 122.02 0 93.323-25.354 175.34-76 245.98l-129.01-5.9842-12 61.008c49.984 49.323 127.65 85.984 233.01 109.98 50.646-77.984 76-169.98 76-276zm-303.02-157.01c0-52.661-1.9842-98.331-5.9842-137.01l-166.02 49.008c35.339 58.677 53.008 132.35 53.008 221.01 0 88.661-13.323 172.35-40 250.99l61.008 25.008c65.323-81.323 97.984-217.67 97.984-409.01z"
        /></glyph
      >
   <glyph
          id="glyph6433"
          unicode="l"
          horiz-adv-x="274"
        ><path
            id="path6435"
            d="m236 792c-39.339-109.32-58.992-241.98-58.992-397.98 0-130.02 17.669-255.02 53.008-375.02-36.693-36.661-93.669-54.992-171.02-54.992-4 48.661-5.9842 108.35-5.9842 178.99 0 319.34 40.661 548 121.98 686.02l61.008-37.008z"
        /></glyph
      >
   <glyph
          id="glyph6437"
          unicode="o"
          horiz-adv-x="615"
        ><path
            id="path6439"
            d="m592 256c0-66.677-29.008-125.98-86.992-177.98-51.339-46.677-112-77.354-182.02-92.032 34.677 26.677 63.339 60.032 86.016 100.03 24 42.646 36 84.976 36 126.99 0 45.323-9.3543 91.339-28 137.98-24 59.339-55.339 87.024-94.016 83.024l73.008 54.992c61.323-5.3543 110.02-30.331 146.02-74.992 33.323-42.677 49.984-95.339 49.984-158.02zm-269.01-196l-73.984-68c-58.016-2.0158-106.99 19.654-146.99 65.008-37.354 42.646-56 93.323-56 152 0 81.984 24.976 149.01 74.992 201.01 48 50.646 113.01 80.976 194.99 90.992-48.661-60.661-78.992-102.02-90.992-124-21.354-41.354-32-92-32-152 0-44 7.6535-81.008 22.992-110.99 19.339-37.354 48-56 86.016-56 6.6457 0 13.638 0.66142 20.976 1.9842z"
        /></glyph
      >
   <glyph
          id="glyph6441"
          unicode="c"
          horiz-adv-x="590"
        ><path
            id="path6443"
            d="m546.99 428l-109.98-97.984c-12 25.323-30.016 46.331-54.016 62.992s-49.669 25.008-76.976 25.008c-8 0-15.685-0.69291-23.024-2.0158l80 78.992c12.661 2.6772 25.354 4 38.016 4 59.339 0 108-23.654 145.98-70.992zm6.0158-356c-22.677-28-62.677-50.677-120-68-48-14.016-94.677-21.008-140-21.008-73.354 0-133.35 19.024-180 57.008-50.016 40.661-74.992 96.661-74.992 168 0 76 25.984 140.66 77.984 194.02 46.016 47.307 108 82.646 186.02 105.98-32.693-32.661-60.693-72.346-84-118.99-26.016-51.339-39.024-97.669-39.024-138.99 0-38.677 17.354-78.016 52-118.02 34.677-40 71.339-60 110.02-60 86.646 0 149.32 30.677 188 92l24-92z"
        /></glyph
      >
   <glyph
          id="glyph6445"
          unicode="e"
          horiz-adv-x="646"
        ><path
            id="path6447"
            d="m594.02 333.01c0-52-26.362-93.669-79.024-125.01-45.323-26.677-95.654-39.339-150.99-37.984h-33.984l-43.024 85.984c15.339-11.339 34.016-17.008 56-17.008 24.661 0 47.685 7.0236 69.008 21.008 24 15.339 36 34.992 36 58.992 0 24.661-10.173 46.016-30.488 64-20.346 18.016-43.181 29.008-68.504 33.008 4 17.323 21.984 34.331 53.984 50.992 28.661 14.677 53.354 22.016 74.016 22.016 33.323 0 61.984-18.331 85.984-54.992 20.661-32.693 31.024-66.362 31.024-101.01zm-6.0158-273.01c-55.339-60-132.66-90.016-232-90.016-205.32 0-308 85.008-308 255.02 0 70.646 35.339 133.32 106.02 188 65.984 50.646 134.99 76 206.99 76-109.35-84-164-168-164-252 0-50.677 17.008-96 50.992-136 36-42.016 78.992-62.992 129.01-62.992 65.323 0 129.32 33.984 192 101.98l18.992-80z"
        /></glyph
      >
   <glyph
          id="glyph6449"
          unicode="i"
          horiz-adv-x="262"
        ><path
            id="path6452"
            d="m268 758.99c0-20.661-6.6772-38.992-20-54.992-14.677-17.984-32-26.992-52-26.992-15.339 0-27.654 5.8268-37.008 17.48-9.3228 11.685-13.984 25.165-13.984 40.504 0 20 6.9921 38.52 21.008 55.496 13.984 17.008 30.992 25.512 50.992 25.512 15.339 0 27.654-5.6693 37.008-17.008 9.3228-11.339 13.984-24.661 13.984-40zm-30.992-710.99l-146.99-98.992c-28.693 45.984-43.024 118.65-43.024 217.98 0 114.02 14.331 233.67 43.024 359.02l68-12c-8-38.677-12-77.669-12-117.01 0-59.339 8-119.68 24-181.01 16-64.661 38.331-120.66 66.992-168z"
        /></glyph
      >
   <glyph
          id="glyph6454"
          unicode="d"
          horiz-adv-x="634"
        ><path
            id="path6456"
            d="m605.01 533.01c0-138.02-14.016-270.68-42.016-398.02l-85.984-12.976c17.984 62.646 26.992 131.31 26.992 205.98 0 154.68-31.339 298.33-93.984 430.99l146.99 80c32-77.984 48-180 48-305.98zm-64-454.99l-12-73.008c-62.677-20-126.68-30.016-192-30.016-79.339 0-148.66 21.008-208 63.024-66.677 46.646-100 108.32-100 184.98 0 71.339 37.323 135.68 112 193.01 69.323 52.661 141.01 78.992 214.99 78.992 27.339 0 53.323-4 78.016-12v-66.992c-18.016 2.6772-35.339 4-52 4-54.016 0-101.35-17.669-142.02-53.008-41.984-37.323-62.992-82.331-62.992-134.99 0-56.661 26.992-99.339 81.008-128 42.646-23.339 94.992-34.992 156.98-34.992 44 0 86.016 2.9921 126.02 9.0079z"
        /></glyph
      >
   <glyph
          id="glyph6458"
          unicode="n"
          horiz-adv-x="618"
        ><path
            id="path6460"
            d="m562.02 297.01c0-116-20.346-226.33-61.008-331.02l-68 24c17.323 38.016 25.984 86.016 25.984 144.03 0 80-20.661 153.32-61.984 220-42.677 8.6614-80 12.976-112 12.976-24.661 0-42.677-2.3307-54.016-6.9921l-5.9842 62.016c92 65.984 180.32 96.976 265.01 92.976l22.992-0.97638c32.661-58.677 49.008-131.02 49.008-217.01zm-343.02-161.01c0-72.661-4.315-129.32-12.976-170.02l-153.01 55.024c38.646 107.34 57.984 214.33 57.984 321.01 0 63.307-6.9921 112.32-20.976 146.99l72.976 25.008c37.354-127.34 56-253.35 56-378.02z"
        /></glyph
      >
   <glyph
          id="glyph6462"
          unicode="p"
          horiz-adv-x="599"
        ><path
            id="path6464"
            d="m576 258.99c0-59.339-37.008-116.66-110.99-172-69.354-52.661-134.33-78.992-194.99-78.992-18.677 0-40 2.0158-64 6.0158l-6.0158 72.976c20.661-5.3228 40.661-8 60-8 50.677 0 92.661 24.346 126.02 73.008 29.323 44 44 92.661 44 146.02 0 31.307-12.693 58.803-38.016 82.488-25.323 23.654-53.669 35.496-85.008 35.496-30.646 0-64.315-9.3228-100.98-28l6.9921 80c45.984 28 90.646 42.016 133.98 42.016 60.661 0 114.02-26.52 160-79.528 46.016-52.976 69.008-110.14 69.008-171.5zm-376-526.99l-153.01-74.016c-10.646 75.339-16 169.35-16 282.02 0 212 23.685 408.35 71.024 589.01l68-25.008c-18.677-91.339-28-200.35-28-326.99 0-162.68 19.307-311.02 57.984-445.01z"
        /></glyph
      >
   <glyph
          id="glyph6466"
          unicode="t"
          horiz-adv-x="447"
        ><path
            id="path6468"
            d="m436 465.01l-37.008-92-102.99 33.008 5.0079 64.976 134.99-5.9842zm-49.984-350.02c-77.354-77.323-153.01-120-227.02-128-21.984 64-32.976 143.02-32.976 237.01 0 64.661 4.9764 125.32 14.992 182.02l-134.02-4-6.9921 74.992 158.99 25.008c16.661 66.646 37.354 140.32 62.016 220.98l73.008-24.976c-34.016-96-51.024-201.35-51.024-316 0-93.354 9.0079-174.02 27.024-242.02l92 37.008 24-62.016z"
        /></glyph
      >
   <glyph
          id="glyph6470"
          unicode="r"
          horiz-adv-x="457"
        ><path
            id="path6472"
            d="m481.01 485.01l-80-146.99c-32 28-70.992 41.984-117.01 41.984-33.984 0-66.677-9.9842-97.984-29.984l-6.0158 80c86.677 55.307 162.02 82.992 226.02 82.992 32.661 0 57.638-9.3543 74.992-28zm-264-441.01l-160-86.016c-17.354 72.032-26.016 155.34-26.016 250.02 0 116 17.008 218.68 51.024 308l60.976-25.008c-15.339-39.339-22.992-88.661-22.992-148 0-108 32.346-207.65 97.008-298.99z"
        /></glyph
      >
   <glyph
          id="glyph6474"
          unicode="s"
          horiz-adv-x="510"
        ><path
            id="path6476"
            d="m434.99 462.02l-60.976-89.008c-16 36.661-54.677 59.339-116 68l42.992 49.008c21.323 2.6457 37.008 4 46.992 4 23.339 0 52.346-10.677 86.992-32zm37.008-317.01c0-44-23.654-80.346-70.992-109.01-37.354-22.677-81.008-37.008-130.99-42.992 49.323 36.661 73.984 75.339 73.984 116 0 35.339-24.661 65.323-73.984 89.984-46.016 20-92 40-138.02 60-49.323 26.016-73.984 58.677-73.984 98.016 0 36.661 17.323 69.008 52 97.008 32.661 26.646 68 40 105.98 40 12 0 24-1.3543 36-4-36.661-34.016-54.992-63.685-54.992-89.008 0-19.339 23.654-40.346 70.992-62.992 71.339-33.354 115.34-56.346 132-69.008 48-34.016 72-75.339 72-124zm-208-85.008c-13.323-12.661-26.677-25.669-40-38.992-19.339-17.354-34.677-26.016-45.984-26.016-38.016 0-97.354 25.669-178.02 77.008l92 92c49.323-61.323 106.68-96 172-104z"
        /></glyph
      >
   <glyph
          id="glyph6478"
          unicode="z"
          horiz-adv-x="613"
        ><path
            id="path6480"
            d="m546.02 409.01c-25.354-58.016-117.35-150.02-276-276l-68 37.008c65.323 41.323 112.66 106.99 141.98 196.98-53.984 16-136 24-245.98 24l-24 68c62.646 16 130.99 24 204.98 24 114.68 0 203.68-24.661 267.02-73.984zm60.976-337.01c-36-32-84.661-57.323-145.98-76-54.677-16-109.35-24-164-24-96 0-194.99 22.992-297.01 69.008l153.01 98.992c83.339-44.661 165.98-66.992 248-66.992 65.323 0 117.67 17.984 157.01 53.984l48.976-54.992z"
        /></glyph
      >
   <glyph
          id="glyph6482"
          unicode="u"
          horiz-adv-x="586"
        ><path
            id="path6484"
            d="m553.01 465.01c-46.677-78.677-70.016-176.66-70.016-294.02 0-47.339 5.0079-94.646 15.024-141.98l-67.024-31.024c-37.323 88.032-56 187.68-56 299.02 0 85.323 14.331 163.65 43.024 234.99l134.99-66.992zm-190.02-381.01c-57.323-44.661-149.32-77.323-276-98.016-24.661 66.677-36.976 147.02-36.976 241.01 0 106.68 20.661 206.33 61.984 299.02l54.992-43.024c-4-33.984-5.9842-69.984-5.9842-108 0-103.34 16.315-179.65 49.008-228.98l128.98 12 24-74.016z"
        /></glyph
      >
   <glyph
          id="glyph6486"
          unicode="q"
          horiz-adv-x="622"
        ><path
            id="path6488"
            d="m586.02 480c-40-130.68-60-275.34-60-433.98 0-115.34 13.984-220.03 41.984-314.02l-153.98-110.99c-14.677 64-22.016 145.98-22.016 245.98 0 225.35 46.331 440 138.99 644l55.024-30.992zm-123.02 0l-36.976-68c-23.339 10.677-46.016 16-68 16-50.016 0-91.685-26.677-125.01-80-29.354-45.984-44-96-44-149.98 0-37.354 10.835-68 32.504-92s51.15-36 88.504-36c19.307 0 33.638 3.6535 42.992 10.992v-86.016c-28-9.9842-55.339-14.992-82.016-14.992-64 0-118.99 24.158-164.98 72.504-46.016 48.315-69.008 104.82-69.008 169.51 0 74.646 28.315 141.64 85.008 200.98 56.661 59.339 122.33 89.008 196.98 89.008 52.661 0 100.66-10.677 144-32z"
        /></glyph
      >
   <glyph
          id="glyph6490"
          unicode="é"
          horiz-adv-x="646"
        ><path
            id="path6492"
            d="m594.02 333.01c0-52-26.362-93.669-79.024-125.01-45.984-26.677-96.315-39.339-150.99-37.984h-33.984l-43.024 85.984c15.339-11.339 34.016-17.008 56-17.008 24.661 0 47.685 7.0236 69.008 21.008 24 15.339 36 34.992 36 58.992 0 24.661-10.173 46.016-30.488 64-20.346 18.016-43.181 29.008-68.504 33.008 4 17.323 21.984 34.331 53.984 50.992 28.661 14.677 53.354 22.016 74.016 22.016 33.323 0 61.984-18.331 85.984-54.992 20.661-32.693 31.024-66.362 31.024-101.01zm-6.0158-273.01c-55.339-60-132.66-90.016-232-90.016-205.32 0-308 85.008-308 255.02 0 70.646 35.339 133.32 106.02 188 65.984 50.646 134.99 76 206.99 76-109.35-84-164-168-164-252 0-50.677 17.008-96 50.992-136 36-42.016 78.992-62.992 129.01-62.992 65.323 0 129.32 33.984 192 101.98l18.992-80zm-118.99 616c-53.354-1.3228-106.33-9.3228-158.99-24-60-16.661-108.35-39.339-145.01-68 17.323 48.661 49.008 90.992 94.992 126.99 43.339 34.016 91.339 56 144 66.016l65.008-101.01z"
        /></glyph
      >
  </font
    >
<filter
        id="filter3329"
        inkscape:collect="always"
        color-interpolation-filters="sRGB"
      ><feGaussianBlur
          id="feGaussianBlur3331"
          stdDeviation="3.5269697"
          inkscape:collect="always"
      /></filter
    ><filter
        id="filter3325"
        inkscape:collect="always"
        color-interpolation-filters="sRGB"
      ><feGaussianBlur
          id="feGaussianBlur3327"
          stdDeviation="4.266096"
          inkscape:collect="always"
      /></filter
    ><filter
        id="filter4177"
        height="1.3832"
        width="1.1976"
        color-interpolation-filters="sRGB"
        y="-.19158"
        x="-.098823"
        inkscape:collect="always"
      ><feGaussianBlur
          id="feGaussianBlur4179"
          stdDeviation="2.804409"
          inkscape:collect="always"
      /></filter
    ><filter
        id="filter4173"
        height="1.2838"
        width="1.0941"
        color-interpolation-filters="sRGB"
        y="-.14189"
        x="-.047049"
        inkscape:collect="always"
      ><feGaussianBlur
          id="feGaussianBlur4175"
          stdDeviation="2.804409"
          inkscape:collect="always"
      /></filter
    ><filter
        id="filter4169"
        inkscape:collect="always"
        color-interpolation-filters="sRGB"
      ><feGaussianBlur
          id="feGaussianBlur4171"
          stdDeviation="2.804409"
          inkscape:collect="always"
      /></filter
    ><filter
        id="filter4165"
        height="1.2306"
        width="1.114"
        color-interpolation-filters="sRGB"
        y="-.11532"
        x="-.056990"
        inkscape:collect="always"
      ><feGaussianBlur
          id="feGaussianBlur4167"
          stdDeviation="2.804409"
          inkscape:collect="always"
      /></filter
    ><filter
        id="filter4161"
        height="1.2583"
        width="1.0845"
        color-interpolation-filters="sRGB"
        y="-.12913"
        x="-.042257"
        inkscape:collect="always"
      ><feGaussianBlur
          id="feGaussianBlur4163"
          stdDeviation="2.804409"
          inkscape:collect="always"
      /></filter
    ><filter
        id="filter4157"
        inkscape:collect="always"
        color-interpolation-filters="sRGB"
      ><feGaussianBlur
          id="feGaussianBlur4159"
          stdDeviation="2.804409"
          inkscape:collect="always"
      /></filter
    ><filter
        id="filter4153"
        height="1.3306"
        width="1.1237"
        color-interpolation-filters="sRGB"
        y="-.16531"
        x="-.061870"
        inkscape:collect="always"
      ><feGaussianBlur
          id="feGaussianBlur4155"
          stdDeviation="2.804409"
          inkscape:collect="always"
      /></filter
    ><linearGradient
        id="linearGradient2446"
      ><stop
          id="stop2448"
          style="stop-color:#a88466;stop-opacity:0"
          offset="0"
      /><stop
          id="stop2454"
          style="stop-color:#a88466;stop-opacity:0.744"
          offset=".5"
      /><stop
          id="stop2450"
          style="stop-color:#a88466;stop-opacity:0"
          offset="1"
      /></linearGradient
    >
<filter
        id="filter4881"
        inkscape:collect="always"
        color-interpolation-filters="sRGB"
      ><feGaussianBlur
          id="feGaussianBlur4883"
          stdDeviation="0.70294286"
          inkscape:collect="always"
      /></filter
    ><filter
        id="filter5093"
        inkscape:collect="always"
        color-interpolation-filters="sRGB"
      ><feGaussianBlur
          id="feGaussianBlur5095"
          stdDeviation="0.40438957"
          inkscape:collect="always"
      /></filter
    ><linearGradient
        id="linearGradient5231"
        y2="413.24"
        gradientUnits="userSpaceOnUse"
        x2="249.29"
        gradientTransform="matrix(-1 0 0 -2.1157 566.93 995.77)"
        y1="322.25"
        x1="257.86"
        inkscape:collect="always"
      ><stop
          id="stop3421"
          style="stop-color:#5a696c"
          offset="0"
      /><stop
          id="stop3423"
          style="stop-color:#466377"
          offset=".21298"
      /><stop
          id="stop3425"
          style="stop-color:#253654"
          offset=".64123"
      /><stop
          id="stop3427"
          style="stop-color:#3d617c"
          offset=".91941"
      /><stop
          id="stop3429"
          style="stop-color:#0d3941"
          offset="1"
      /></linearGradient
    ><linearGradient
        id="linearGradient5233"
        y2="403.79"
        gradientUnits="userSpaceOnUse"
        x2="264.29"
        y1="338.79"
        x1="279.29"
        inkscape:collect="always"
      ><stop
          id="stop3317"
          style="stop-color:#a88466"
          offset="0"
      /><stop
          id="stop2444"
          style="stop-color:#846245;stop-opacity:.90196"
          offset=".5"
      /><stop
          id="stop3319"
          style="stop-color:#604025"
          offset="1"
      /></linearGradient
    ><linearGradient
        id="linearGradient5235"
        y2="237.36"
        xlink:href="#linearGradient2446"
        gradientUnits="userSpaceOnUse"
        x2="353.57"
        gradientTransform="translate(-86.429 56.429)"
        y1="305.22"
        x1="342.86"
        inkscape:collect="always"
    /><linearGradient
        id="linearGradient5237"
        y2="237.36"
        xlink:href="#linearGradient2446"
        gradientUnits="userSpaceOnUse"
        x2="353.57"
        gradientTransform="matrix(.12190 0 0 .11708 346.76 -59.801)"
        y1="305.22"
        x1="342.86"
        inkscape:collect="always"
    /></defs
  >
<g
      id="g6934"
      transform="translate(-409.98 11.573)"
    ><rect
        id="rect3516"
        style="stroke:#000000;stroke-width:1.0964;fill:none"
        rx="0"
        ry="0"
        height="36.944"
        width="36.944"
        y="-9.9919"
        x="411.56"
    /><g
        id="g5177"
        transform="translate(-5.0003 50.003)"
      ><g
          id="g3568"
          transform="matrix(.12190 0 0 .12190 400.48 -73.933)"
        ><path
            id="path3325"
            sodipodi:nodetypes="ccccc"
            style="fill-rule:evenodd;fill:url(#linearGradient5231)"
            d="m433.3 355.49v-239.61h-299.68v189.05l299.68 50.556z"
        /><path
            id="path3555"
            style="opacity:.2;filter:url(#filter4165);fill-rule:evenodd;fill:#ffffff"
            d="m278.56 115.88h-50.531c7.387 7.1394 14.195 12.975 22.688 19.344 8.3039 6.228 16.781 11.062 24.281 18.562 6.7958 6.7958 19.86 3.5222 27.156 1.4375 11.958-3.4166 22.217 6.3202 30.688-3.5625 9.9183-11.571-6.4278-10.852-14.281-9.2812-12.975 2.595-13.091-1.9325-17.844-11.438-3.5992-7.1984-14.442-8.0355-19.281-12.875-0.79672-0.79672-1.8301-1.498-2.875-2.1875z"
        /><path
            id="path3345"
            style="opacity:.2;filter:url(#filter4161);fill-rule:evenodd;fill:#ffffff"
            d="m433.31 226.59v-19.75c-14.078-1.2385-29.45-5.1875-43.312-5.1875-23.065 0-44.088-19.811-66.438-24.281-1.6997-0.33994-3.3333-0.96131-5-1.4375-12.226-3.4931-19.942 0.38455-32.125 2.125-15.481 2.2115 23.605 19.054 29.281 20 12.547 2.0911 24.656 5.078 37.125 7.1562 12.212 2.0354 27.177 10.146 39.312 15 1.8888 0.75553 3.7827 1.442 5.6875 2.1562 11.764 4.4115 22.807 4.2812 35 4.2812 0.18316 0 0.29235-0.057 0.46875-0.0625z"
        /><path
            id="path3347"
            style="opacity:.2;filter:url(#filter4153);fill-rule:evenodd;fill:#ffffff"
            d="m133.62 222.12v26.156c6.1779 5.6712 16.521 13.375 21.375 13.375 8.0565 0 15.206-2.875 22.844-2.875 1.9048 0 3.814 0.00001 5.7188 0 9.7852 0 24.255 3.5929 32.875 2.1562 8.0814-1.3469 29.899-7.1563 10.719-7.1562-12.883 0-21.614-8.8503-33.594-12.844-8.789-2.9297-18.928-5.7187-28.562-5.7188-12.546 0-22.831-9.7491-31.375-13.094z"
        /><path
            id="path3351"
            style="opacity:.2;filter:url(#filter4173);fill-rule:evenodd;fill:#ffffff"
            d="m295.71 235.93c0.72048 3.6024-22.246-15.026-5-10.714 10.989 2.7472 20.753 1.8049 31.429 7.1429 9.7301 4.865 15.657 13.021 26.429 15.714 10.383 2.5956 20.269 3.2592 30.714 5 11.845 1.9742 21.113 11.794 33.571 14.286 8.719 1.7438 24.397 7.5278 5.7143 2.8571-13.131-3.2827-29.398-1.4286-43.571-1.4286-10.617 0-20.837-2.8571-30.714-2.8571-7.6791 0-21.855-7.356-28.571-10.714-7.1442-3.5721-15-3.5599-15-15 0-2.1951-3.3333-2.8571-5-4.2857z"
        /><path
            id="path3353"
            style="opacity:.2;filter:url(#filter4177);fill-rule:evenodd;fill:#ffffff"
            d="m433.31 325.97v-31.75c-6.6021-1.7797-11.58 0.28125-19.031 0.28125-11.896 0-28.562-3.6158-28.562-3.5625-2.261 6.783-2.2163 2.3943 0 5.7188 5.8327 8.7491 18.494 9.1819 26.438 17.125 3.9847 3.9847 14.328 12.002 21.156 12.188z"
        /><g
            id="g3515"
          ><path
              id="path3313"
              style="fill-rule:evenodd;fill:url(#linearGradient5233)"
              d="m133.62 302.63v113.25h299.68v-61.671l-299.68-51.579z"
          /><path
              id="path2438"
              style="fill-rule:evenodd;fill:url(#linearGradient5235)"
              d="m133.62 260.49v108.25h299.68v-58.948l-299.68-49.302z"
          /></g
        ><path
            id="path3558"
            style="opacity:.2;filter:url(#filter4169);fill-rule:evenodd;fill:#ffffff"
            d="m158.19 115.88h-24.562v64.688c8.8877 5.3781 18.391 11.363 25.656 16.812 8.2621 6.1966 16.44 10.687 27.156 10.688 2.1429 0 4.2634-0.00001 6.4062 0 11.385 0 10.719-1.3683 10.719-11.406 0-9.7762 4.1858-9.2812 12.875-9.2812 5.3657 0 18.68 1.1744 22.844-2.1562 6.8304-5.4643 14.281-2.3694 14.281-12.156 0-17.588-8.1549-13.58-20-20.688-1.1905-0.71428-2.3208-1.5354-3.5625-2.1562-9.51-4.76-15.15-10.73-26.45-10.73-11.826 0-22.391-9.0551-32.844-14.281-3.9573-1.9787-8.5258-5.5912-12.531-9.3438z"
        /><path
            id="path4181"
            style="opacity:.1;filter:url(#filter4169);fill-rule:evenodd;fill:#ffffff"
            d="m133.62 122.59v44.938c5.6738 2.8247 11.486 5.8026 16.062 8.5938 5.9047 3.6009 11.748 6.25 19.406 6.25h4.5938c8.1368 0 7.6563-0.82303 7.6562-6.6562 0-5.6811 2.9776-5.4063 9.1875-5.4062 3.8347 0 13.368 0.71675 16.344-1.2188 4.8815-3.1754 10.219-1.3752 10.219-7.0625 0-10.221-5.8472-7.9012-14.312-12.031-0.8508-0.41508-1.6751-0.88919-2.5625-1.25-6.7866-2.7592-10.8-6.25-18.875-6.25-8.452 0-15.999-5.2443-23.469-8.2812-6.082-2.4727-14.307-9.2686-15.844-12.031-2.4552-0.39928-5.6182-0.32613-8.4062 0.40625z"
        /><path
            id="path3546"
            style="opacity:.2;filter:url(#filter4157);fill-rule:evenodd;fill:#ffffff"
            d="m433.31 163.44v-47.562h-56.438c-2.9286 7.7899-1.5325 11.936 4.5625 20.062 6.9762 9.3016 16.537 12.909 27.844 18.562 5.2723 2.6362 16.11 5.3448 24.031 8.9375z"
        /></g
      ><g
          id="g5135"
          transform="translate(43.184 3.2354e-7)"
        ><g
            id="g5097"
          ><path
              id="path5050"
              style="fill-rule:evenodd;filter:url(#filter5093);stroke:#000000;stroke-width:.12190px;fill:#fcdc43"
              d="m403.04-27.671c-0.59153-0.15669-1.583-0.97346-2.0897-1.4802-0.79801-0.79801 1.133-2.6122-1.0449-2.6122-1.9541 0-2.283-1.6268-3.57-2.6992-1.0975-0.9146-2.3349-1.7651-3.57-2.1768-2.1586-0.71955-1.0898-1.4248-0.0871-2.1768 0.37086-0.27814-2.0129-2.1871-2.2639-2.438-0.13141-0.13141-0.23219-0.29024-0.34829-0.43536-0.44265-0.55332 0.16836-2.5971 0.78365-2.351 0.98713 0.39485 1.2761 1.7143 2.351-0.43536 0.53653-1.0731-1.7723-0.75278-0.0871-2.438 0.76367-0.76368 0.15339-2.7919-0.26122-3.4829-0.36436-0.60726-0.1288-3.05 0.26122-3.57 0.24372-0.32496-2.4-0.81084-1.8285-2.5251 0.26716-0.80145 1.6325-1.774-0.17414-0.87072-1.0218 0.51093-0.9578 1.1039-0.9578 2.0897 0 0.9664-0.33157 1.8933-0.87072 2.6122-0.12558 0.16744-0.23219 0.34829-0.34829 0.52243-0.95603 1.434-2.6992 0.27868-2.6992-1.1319 0-0.50053 0.77105-0.56282-0.43536-0.26122-0.9446 0.23615-0.45789 2.4125-0.34829 2.9605 0.0346 0.17312 0.0581 0.34829 0.0871 0.52243 0.13734 0.824 1.0543 1.8768 1.8285 2.2639 1.0478 0.52388-0.94068 2.2737-2.7863 1.219-0.71013-0.40579-0.69658 3.1399-0.69658 3.3958 0 1.816-0.97462 1.7583-2.1768 2.9605-0.91933 0.91932-1.3061 2.398-1.3061 3.657 0 2.0795 2.0062 2.445 2.7863 4.0053 0.47263 0.94526 1.2432 2.0123 1.4802 2.9605 0.3271 1.3084 0.43879 1.7778 2.0897 1.3061 0.2846-0.08132 0.58048-0.1161 0.87072-0.17414 1.0307-0.20614 3.7299 0.15993 4.4407 0.87072 0.9704 0.9704 0.71463-2.42 2.0027-1.1319 0.90106 0.90106 1.7952 1.8285 3.1346 1.8285 2.3825 0 2.2456 0.6622 4.4407-0.43536 0.55676-0.27838 0.72211 0.03517 1.3932-0.34829z"
          /><path
              id="path4203"
              style="fill-rule:evenodd;stroke:#554400;stroke-width:.056444;fill:#fcdc43"
              d="m403.04-27.671c-0.59152-0.15669-1.583-0.97346-2.0897-1.4802-0.79802-0.79801 1.133-2.6122-1.0449-2.6122-1.9541 0-2.283-1.6268-3.57-2.6992-1.0975-0.9146-2.3349-1.7651-3.57-2.1768-2.1586-0.71955-1.0898-1.4248-0.0871-2.1768 0.37085-0.27814-2.0129-2.1871-2.2639-2.438-0.13141-0.13141-0.23219-0.29024-0.34829-0.43536-0.44265-0.55332 0.16837-2.5971 0.78365-2.351 0.98714 0.39485 1.2762 1.7143 2.351-0.43536 0.53653-1.0731-1.7723-0.75278-0.0871-2.438 0.76368-0.76368 0.15339-2.7919-0.26122-3.4829-0.36436-0.60726-0.1288-3.05 0.26122-3.57 0.24372-0.32496-2.3999-0.81084-1.8285-2.5251 0.26715-0.80145 1.6325-1.774-0.17415-0.87072-1.0218 0.51093-0.95779 1.1039-0.95779 2.0897 0 0.9664-0.33158 1.8933-0.87073 2.6122-0.12558 0.16744-0.23219 0.34829-0.34829 0.52243-0.95603 1.434-2.6992 0.27868-2.6992-1.1319 0-0.50053 0.77104-0.56282-0.43537-0.26122-0.9446 0.23615-0.45789 2.4125-0.34829 2.9605 0.0346 0.17312 0.058 0.34829 0.0871 0.52243 0.13733 0.824 1.0543 1.8768 1.8285 2.2639 1.0478 0.52388-0.94068 2.2737-2.7863 1.219-0.71013-0.40579-0.69658 3.1399-0.69658 3.3958 0 1.816-0.97461 1.7583-2.1768 2.9605-0.91932 0.91932-1.3061 2.398-1.3061 3.657 0 2.0795 2.0062 2.445 2.7863 4.0053 0.47263 0.94526 1.2432 2.0123 1.4802 2.9605 0.32711 1.3084 0.43879 1.7778 2.0897 1.3061 0.2846-0.08132 0.58048-0.1161 0.87072-0.17414 1.0307-0.20614 3.7299 0.15993 4.4407 0.87072 0.9704 0.9704 0.71463-2.42 2.0027-1.1319 0.90106 0.90106 1.7952 1.8285 3.1346 1.8285 2.3825 0 2.2456 0.6622 4.4407-0.43536 0.55675-0.27838 0.7221 0.03517 1.3932-0.34829z"
          /><path
              id="path4205"
              style="fill-rule:evenodd;stroke:#554400;stroke-width:.056444;fill:#fcdc43"
              d="m402.7-30.167c-0.46627 0.31677 0.19091 0.88917 0.29639 1.2555 0.30509 0.26268 0.88188 0.80969 1.2617 0.37109 0.0223-0.8031-0.71998-1.7108-1.5581-1.6266z"
          /><path
              id="path4207"
              style="fill-rule:evenodd;stroke:#554400;stroke-width:.056444;fill:#fcdc43"
              d="m380.32-52.968c-0.49968-0.6246 0.38103 1.9408 1.1654 2.0977 3.1094 0.62187 1.6589-2.0977-1.1654-2.0977z"
          /><g
              id="g2456"
              style="opacity:.6;filter:url(#filter3325);fill:#c7683f"
              transform="matrix(.12190 0 0 .12190 393.55 -73.933)"
            ><path
                id="path4209"
                style="opacity:.8;fill-rule:evenodd;fill:#c7683f"
                d="m45 355.58c1.7116-1.6457 8.6217-9.5423 11.071-4.6429 2.2502 4.5003-3.5842 6.0885-5.7143 8.9286-2.5074 3.3432 8.4156 8.3117 9.6429 10.357 2.0784 3.4639 4.7384 4.3574 7.5 6.4286 4.3271 3.2453-3.7937 6.7182-6.0714 7.8571-4.4263 2.2132-8.0671 2.6134-12.857 3.5714-4.4422 0.88844-11.324-1.5945-10.357-6.4286 0.9843-4.9215 9.3719-2.1244 3.9286-8.9286-3.6681-4.5851-7.8242-8.3682-12.857-12.143-4.678-3.51-6.829-6.41-11.787-3.93-4.4911 2.2455-6.7004 5.4115-11.786 6.4286-12.946 2.5891 1.2981-6.2981 3.9286-8.9286 3.9384-3.9384 2.3382-7.8572-3.2143-7.8572-4.577 0-6.9228 2.0058-10.357-1.4286-5.0519-5.0519 3.949-7.1531 5.3571-7.8571 0.01963-0.01-3.8264-1.9891-4.6429-6.0714-0.9526-4.763-11.334-0.54566-7.8571-7.5 2.2472-4.4944 15.664 0.0513 18.214 1.0714 4.7398 1.8959 4.2857 7.3245 4.2857 11.786 0 5.4113 4.7966 6.6923 9.6429 7.5 4.8354 0.80591 8.1605-0.32769 10.714 3.9286 0.41087 0.68479 0.71429 1.4286 1.0714 2.1429 1.2832 2.5664 5.6354 5.0139 7.5 7.5 1.5827 2.1102 4.1869-1.2385 4.6429-1.7857z"
            /><path
                id="path4211"
                style="opacity:.8;fill-rule:evenodd;fill:#c7683f"
                d="m-17.143 351.65c0.01582 0.0211 10.716-3.0353 12.857-2.5 3.5076 0.8769 3.8518 4.8965 4.2857 7.5 0.23968 1.438-13.25 1.7857-15 1.7857-4.0538 0-7.2773 0.71429-11.429 0.71429-6.8363 0-4.9189-5 3.2143-5 3.181 0 4.1036-0.0402 6.0714-2.5z"
            /><path
                id="path4213"
                style="opacity:.8;fill-rule:evenodd;fill:#c7683f"
                d="m-28.214 367.36c4.3711 0 7.7265-2.2082 12.857 0.35714 0.57341 0.28671 1.1905 0.47619 1.7857 0.71429 3.8248 1.5299 6.217-0.48924 7.5 4.6429 0.58484 2.3394-0.053864 7.6028-2.5 8.2143-3.1409 0.78524-7.0825-4.6126-9.2857-5.7143-4.4976-2.2488-8.1149 0.0745-12.5-3.2143-2.9644-2.2233 0.82227-4.2076 2.1429-5z"
            /><path
                id="path4215"
                style="opacity:.8;fill-rule:evenodd;fill:#c7683f"
                d="m-38.214 366.29c-2.4401-1.8301-8.3207-3.2675-13.214-5.7143-5.1824-2.5912 1.9384-8.1626 2.8571-10 1.8521-3.7042-13.447-6.5992-6.0714-12.5 0.72604-0.58084 1.4286-1.1905 2.1429-1.7857 4.5563-3.7969 5.6473-3.9955 1.0714-8.5714-3.301-3.301-6.3594-2.1485-8.2143-6.7857-1.2105-3.0263 7.3366-4.3826 8.5714-5 4.1906-2.0953 8.2143-0.70763 8.2143-7.1429 0-4.8974-2.3839-11.129-8.2143-8.2143-0.33672 0.16836-0.71428 0.23809-1.0714 0.35714-2.2121 0.73735-3.4165 10.032-5 12.143-4.0072 5.343-6.0714-11.337-6.0714-12.857 0-5.2758-8.4733 8.4734-9.2857 9.2857-5.2726 5.2726-8.7556 0.0338-7.8571-5.3571 0.64597-3.8758 8.9768-6.7309 11.429-10 1.6625-2.2166 3.3203-8.6105 2.5-11.071-0.81382-2.4414-8.1481-5-10.357-5-3.873 0-4.4968 4.3506-6.0714 7.5-1.9032 3.8064 1.9623 5.2881-1.0714 8.9286-4.8008 5.761-6.0776-1.0838-7.1429-3.2143-1.5341-3.0682-1.6628-7.2542-2.5-8.9286-1.891-3.782-7.8977 4.0097-8.5714 5.3571-1.5179 3.0358-0.35714 6.7378-0.35714 10 0 4.2851-1.8389 7.2874-0.71429 11.786 1.1942 4.7769 2.3451 10.611 6.7857 13.571 4.9166 3.2777 8.7617 8.3489 12.143 12.857 2.4171 3.2228 3.0919 8.3879 5.3571 11.786 2.7847 4.1771 4.464 8.0348 6.0714 12.857 1.2192 3.6576 3.2192 8.2242 5 11.786 1.9913 3.9825 6.7465 2.8768 9.6429 1.4286 0.67344-0.33671 1.4286-0.47619 2.1429-0.71428 2.8682-0.95608 6.948-0.92533 10.357-0.35715 2.8235 0.47059 6.3534 0.7519 8.5714-0.35714 3.0646-1.5323 0.24459-5.1941-1.0714-6.0714z"
            /><path
                id="path4217"
                style="opacity:.8;fill-rule:evenodd;fill:#c7683f"
                d="m2.8571 312.72c0.2642-0.13209-5.0219 0.003-10 0.71429-5.4114 0.77306 3.4422 5.6307-4.6429 6.7857-6.1071 0.87244-3.0836-4.544-4.6429-7.1428-2.6412-4.402-6.2451 1.9594-7.8571 3.5714-5.7013 5.7013-4.6429-7.2485-4.6429-8.2143 0-3.5022-3.9453 5.5106-7.8571-0.35714-1.9194-2.8791-3.2588-14.197-2.1429-16.429 2.9565-5.913 11.618 6.8331 12.857 7.1428 2.186 0.54651 5.979-5.3447 6.4286-7.1428 0.36659-1.4664-6.5751-9.1727-7.5-10.714-2.8173-4.6955-6.9025-8.2899-9.6429-12.857-4.0772-6.7954-7.6418 6.9275-8.9286 8.2143-4.9478 4.9478-10.408-2.5-16.429-2.5-6.9181 0 1.7388-8.7265 3.5714-9.6428 2.8919-1.446 8.1576-4.7746 3.5714-8.2143-4.6954-3.5216-8.9569-1.464-13.214-6.7857-5.3088-6.636 1.0987-8.0878 6.0714-11.071 4.3965-2.6379 11.49-2.6477 16.071-0.35715 2.7621 1.381 5.5504 9.8613 11.071 2.5 2.1399-2.8532 4.8018-8.2143-0.71429-8.2143-6.6271 0-9.2523-7.0684-5.7143-11.786 3.1887-4.2516 10.016-8.7418 15.357-6.0714 3.4928 1.7464 0.93703 7.235 0.35714 10.714-0.18692 1.1215 11.429 5.079 11.429-1.4286 0-5.0424-7.8571-6.9228-7.8571-13.571 0-7.613-10.973-4.3501-15.357-7.8571-7.4878-5.9902 4.0032-5.6994 7.5-5 6.4932 1.2986 1.6353-7.8008 0.71429-9.6429-2.1934-4.3867 2.7488-3.13-3.5714-10.714-2.1261-2.5513 3.978-9.5897 5.3571-11.429 3.3373-4.4497 4.2523-3.6048 8.9286 1.0714 2.7301 2.7301 6.9901 7.3463 8.9286 2.5 2.5851-6.4628 2.3966 0.91156 3.2143 5 0.66933 3.3467 1.5025 8.5652 0.35714 11.429-1.9153 4.7884 1.9774 10.601 2.8571 15 1.0512 5.256 4.8843 8.325 2.5 14.286-2.292 5.7301-7.4319 10.221-10 15.357-1.51 3.02 6.236 7.8292 7.8571 11.071 2.858 5.716-8.3957 9.2662-11.786 9.6429-3.8911 0.43234-6.7855-6.5-12.5-5.3572-6.9502 1.39-3.565 11.445-2.1429 15 2.5064 6.2659 2.8637 10.36 9.2857 13.571 3.967 1.9835 14.97 9.316 10.714 13.571-3.3217 3.3217-5.5436 8.8667-6.7857 13.214-0.67976 2.3791 13.294 5.9128 15.357 6.4286 3.3866 0.84665 5.1549 2.5474 3.5714 5.7143z"
            /><path
                id="path4219"
                style="opacity:.8;fill-rule:evenodd;fill:#c7683f"
                d="m-26.786 177.01c1.748 0.43-0.714-3.56-0.714-5.36 0-2.8138 8.9286-10.078 8.9286-2.8572 0 4.3267 0.18861 7.3716 1.0714 11.786 0.62944 3.1472-6.8634 7.6397-8.5714 6.7857-2.8079-1.404 0.3515-8.2256-0.71428-10.357z"
            /><path
                id="path4221"
                style="opacity:.8;fill-rule:evenodd;fill:#c7683f"
                d="m-13.571 178.79c-5.8777-2.9389-1.6488-2.4168 0.71429-7.1428 3.6091-7.2181 7.0374 3.2994 5.3571 7.5-1.4303 3.5758-0.00822 11.387 0.71429 15 0.99471 4.9736 3.0508 8.9889 4.2857 13.929 1.4738 5.895-0.92682 11.641-5 15.714-3.866 3.866-3.5036 10.034 1.4286 12.5 5.7014 2.8507 5.516 6.984 1.4286 11.071-4.4009 4.4009-7.9057 6.2566-13.571 2.8571-3.9216-2.353-3.9306-7.5-10-7.5-9.1173 0 0.04921-6.527 2.1429-10.714 1.3734-2.7468 10.112 5.9792 11.429 0.71428 0.11905-0.47619 0.2381-0.95238 0.35714-1.4286 0.94296-3.7718 8.2195-10.355 2.5-13.214-0.71429-0.35715-1.4286-0.71429-2.1429-1.0714-0.30117-0.15059-0.47619-0.47619-0.71429-0.71429-7.7843-7.7843-1.3584-2.7168-5-10-1.9049-3.8098-8.0324-7.0552 0-11.071 4.7242-2.3621 6.0714-6.5479 6.0714-11.429 0-1.9589 0.40886-2.9557 0-5z"
            /><path
                id="path4223"
                style="opacity:.8;fill-rule:evenodd;fill:#c7683f"
                d="m-38.929 220.22c0-4.1358 10.043-3.014 11.786-2.1428 6.6655 3.3327-0.07135 9.4285-3.2143 11.786-4.375 3.28-9.643-1.99-9.643-5.71 0-3.279-2.4632-0.39399 1.0714-3.9286z"
            /><path
                id="path4225"
                style="opacity:.8;fill-rule:evenodd;fill:#c7683f"
                d="m-50.357 259.51c0-4.7736 8.2162 2.5116 8.5714 4.6429 0.80253 4.8152-6.1409 8.4998-10 8.9286-4.7508 0.52786-10.769-1.374-5.7143-6.4286 2.7682-2.7682 4.3079-4.8749 7.1429-7.1429z"
            /><path
                id="path4227"
                style="opacity:.8;fill-rule:evenodd;fill:#c7683f"
                d="m-33.214 270.58c1.492-1.492-2.7171-15.217 7.8571-4.6429 4.177 4.177 5.4324 7.9586 11.429 10.357 3.5226 1.4091 2.8571 7.9258 2.8571 11.071 0 5.065-8.3816-1.554-12.5-4.6429-3.7491-2.8118-5.5388-7.3245-9.6429-12.143z"
            /><path
                id="path4229"
                style="opacity:.8;fill-rule:evenodd;fill:#c7683f"
                d="m-90 302.01c-1.1064-1.1064-1.679-9.3998-6.4286-7.5-1.2701 0.50806 4.0579 15.389-3.5714 9.2857-0.52586-0.42069-0.95238-0.95238-1.4286-1.4286-5.5843-5.5843 1.6737 11.919 1.7857 12.143 2.9618 5.9235 9.1139 11.971 13.571 16.429 4.9838 4.9838 4.6418 7.1374 6.0714 14.286 1.0433 5.2164 0.76971 12.899 5 16.071 3.2427 2.432 6.7659-0.44312 8.2143-2.8571 2.3218-3.8697-2.1749-12.532-5-15.357-4.9827-4.9827-10.747-8.7026-9.6429-16.429 0.92718-6.4903-2.5-9.8862-2.5-16.786 0-2.5522-4.0524-7.4533-6.0714-7.8571z"
            /><path
                id="path4231"
                style="opacity:.8;fill-rule:evenodd;fill:#c7683f"
                d="m-67.5 307.36c0-0.11268-3.5714 4.0363-3.5714 10.357 0 5.463 0.21627 9.5069 1.7857 15 1.4189 4.966-4.2251 10.357 4.2857 10.357 6.8119 0 7.0551-8.6592 3.2143-12.5-2.9274-2.9274-9.1279-13.372-5.3571-17.143 2.2289-2.2289 2.2305-4.7776-0.35714-6.0714z"
            /><path
                id="path4233"
                style="opacity:.8;fill-rule:evenodd;fill:#c7683f"
                d="m47.5 374.15c1.4701-1.4701-2.5-3.6352-2.5-5.7143 0-7.8846 6.7802-0.28682 10 0.35714 4.5949 0.91899 9.5088 7.4887 12.857 10 3.3779 2.5334-7.6207 3.9487-11.786 4.6429-0.94673 0.15779-1.9048 0.2381-2.8571 0.35714-2.4927 0.31159-13.712 4.492-12.143-1.7857 0.45342-1.8137 5.1657-5.7524 6.4286-7.8571z"
            /><path
                id="path4235"
                style="opacity:.8;fill-rule:evenodd;fill:#c7683f"
                d="m14.643 345.58c0.64563-2.5825 5.1952 1.4286 7.8571 1.4286 5.7591 0 8.8582 1.0768 10 6.7857 0.94353 4.7177-6.9181 1.1838-8.5714 0.35715-4.8109-2.4055-8.3969 3.9253-12.857 0.35714-2.5163-2.0131 2.3697-7.4264 3.5714-8.9286z"
            /><path
                id="path4237"
                style="opacity:.8;fill-rule:evenodd;fill:#c7683f"
                d="m-0.71429 339.86c-1.1833-0.94666 7.4231-0.71428 9.2857-0.71428 5.97 0-4.215 5.9299-4.2857 6.0714-1.77 3.5399-6.5704-3.3902-6.7857-3.9286-0.2831-0.70775 1.1905-0.95238 1.7857-1.4286z"
            /><path
                id="path4239"
                style="opacity:.8;fill-rule:evenodd;fill:#c7683f"
                d="m-20.357 136.65c-0.53633-1.3408-2.1429 4.097-2.1429 7.5 0 3.4111 1.0131 7.3833 2.5 10.357 0.2867 0.57341 0.47619 1.1905 0.71429 1.7857 1.1053 2.7634 5.1034 4.8778 7.5 5.3572 5.3832 1.0766-1.3442-3.5975-1.7857-3.9286-2.9272-2.1954-5.1806-4.6469-6.7857-7.8571-1.1294-2.2588 0.72165-6.0898 1.4286-7.8571 1.0382-2.5955 3.5571-7.4712 3.5714-7.5 0.81092-1.6218-3.7178 0.86067-5 2.1429z"
            /><path
                id="path4241"
                style="opacity:.8;fill-rule:evenodd;fill:#c7683f"
                d="m-37.5 180.22c0.04181-0.0836 0.84449 3.9673-3.5714 7.5-3.1821 2.5457-7.877 2.1429-11.786 2.1429-1.6331 0-3.7389-6.5123-5.7143-7.5-4.9658-2.4829-1.753 4.3512-0.71428 6.4286 2.1851 4.3703 0.65564 7.1481 1.4286 11.786 0.66885 4.0131 6.9032 5.99 8.5714 8.2143 3.755 5.0067 0.88648 6.0714-3.9286 6.0714-4.2942 0-7.6363-8.7629-10.714-11.071-3.1496-2.3622-4.6429-12.085-4.6429-15.714 0-5.2652-1.7729-9.35-0.71428-14.643 0.9007-4.5035 4.9908-6.4249 8.5714-7.8571 0.59653-0.23861 1.5952 7.7379 2.5 10 1.5744 3.936 4.545 7.0518 8.5714 7.8571 4.2457 0.84913 6.7401-0.51291 10-2.1429 0.71429-0.35714 1.4286-0.71428 2.1429-1.0714z"
            /><path
                id="path4243"
                style="opacity:.8;fill-rule:evenodd;fill:#c7683f"
                d="m-65.714 168.08c0.71628-0.35814-2.8571 3.5712-2.8571 8.9286 0 4.68 1.5088 5.5875 5.7143 6.4286 3.7784 0.75568 5.3696-2.1379 8.9286-0.71429 2.9541 1.1816 3.4402 3.9286 7.5 3.9286 5.3575 0 3.8442-3.3718-1.0714-2.1429-2.1666 0.54166-7.94-5.7806-9.6429-7.1429-2.3955-1.9164-4.2242-7.3888-3.5714-10 0.99713-3.9885-4.4799 0.19423-5 0.71429z"
            /><path
                id="path4245"
                style="opacity:.8;fill-rule:evenodd;fill:#c7683f"
                d="m-65.357 195.93c0.14815-0.59261 8.6283 6.0248 9.6429 6.7857 2.6578 1.9934 4.4687 4.2945 6.0714 7.5 1.9509 3.9018-2.2589 4.6429-6.0714 4.6429-1.4803 0-7.5282-10.056-8.2143-11.429-1.4913-2.9826-2.8045-4.0601-1.4286-7.5z"
            /></g
          ><g
              id="g3295"
              style="opacity:.6;filter:url(#filter3329);fill:#ffeeaa"
              transform="matrix(.12190 0 0 .12190 393.55 -73.933)"
            ><path
                id="path2491"
                style="fill-rule:evenodd;fill:#ffeeaa"
                d="m-56.071 279.15c1.692 0-3.3002 1.6433-3.9286 3.2143-2.0276 5.069 7.6456 3.9286 8.9286 3.9286 3.7057 0 3.205 0.35251 6.7857 2.1429 3.8711 1.9356 5.1992-0.83826 5.7143-3.9286 0.72109-4.3265-6.105-4.2857-8.9286-4.2857-3.3958 0-5.5308-1.0714-8.5714-1.0714z"
            /><path
                id="path2479"
                style="fill-rule:evenodd;fill:#ffeeaa"
                d="m-10 336.65h-0.71429c-6.7406 0-4.2689-10.681-5.3571-12.857-2.6559-5.3118-5.6781 2.6449-6.4286-0.35714-1.0291-4.1164-3.1896-5.2051-5.7143-8.5714-2.1898-2.9197-3.6014 4.9401-2.8571 6.4286 0.43883 0.87767 6.4816 1.8465 1.4286 2.8572-2.1262 0.42523-7.1207-1.4286-10-1.4286-3.8168 0 3.5754 8.2222 3.9286 8.9286 1.9967 3.9934 10.357 4.6616 10.357-0.71429 0-4.1899 3.2934 4.6622 4.2857 7.1429 1.8011 4.5026 2.6847 6.7857 8.2143 6.7857 3.2522 0 5-2.8668 5-6.0714 0-1.87 0.31944-0.91171-2.1429-2.1428z"
            /><path
                id="path2481"
                style="fill-rule:evenodd;fill:#ffeeaa"
                d="m-27.143 343.79c0-3.4977 8.0263-1.8233 8.9286 1.7857 0.11905 0.47619 0.2381 0.95238 0.35714 1.4286 1.3306 5.3222-5.0578 6.7395-8.5714 3.9286-3.6681-2.9345-7.382-4.7671-6.0714 1.7857 0.97251 4.8626-6.0489 6.4286-9.6429 6.4286-4.173 0-6.1604-1.9649-4.2857-5.7143 0.23993-0.47987 11.069-2.8579 2.5-5-3.9727-0.99318-8.5975-6.8685-1.7857-8.5714 6.619-1.6548 5.5754 2.0734 10 4.2857 1.7692 0.88459 6.7442-0.0961 8.5714-0.35715z"
            /><path
                id="path2483"
                style="fill-rule:evenodd;fill:#ffeeaa"
                d="m-52.143 225.93c4.6028 2.3014 6.8478-0.27998 7.8571 6.7857 0.29734 2.0814-9.5185 0.71428-10.357 0.71428-4.2954 0-7.6959 0.77959-11.786 2.1429-4.5568 1.5189-4.9024 4.5452-7.1429 6.7857-2.3305 2.3305 3.4346 9.1033 4.6429 10.714 2.594 3.4587 4.0481-2.3791 6.4286 7.1429 1.0443 4.1773-7.0169 5.5504-9.2857 4.6428-2.7899-1.116-5.6683-4.862-6.4286-7.1428-0.79035-2.371 0.02183-6.5814 0.35714-8.9286 0.61087-4.2761-1.2626-7.3792 0.35714-11.429 1.2601-3.1503 4.2158-7.1428 7.8571-7.1428 2.8989 0 5.563 1.7857 8.9286 1.7857 2.101 0 6.6266-4.7749 8.5714-6.0714z"
            /><path
                id="path2485"
                style="fill-rule:evenodd;fill:#ffeeaa"
                d="m-55.357 192.36c1.7045 0-1.4848 3.3464-1.0714 5 1.0496 4.1985 6.8161 1.55 7.8571 5.7143 1.0464 4.1855 2.9991 7.2162 5.7143 1.7857 1.0652-2.1305-0.88146-5.606 1.0714-10 1.404-3.159-6.2207-1.4286-8.2143-1.4286-2.9558 0-2.7143 1.0429-5.3571-1.0714z"
            /><path
                id="path2487"
                style="fill-rule:evenodd;fill:#ffeeaa"
                d="m-26.071 146.29c-3.3184 0-0.71428 7.0244-0.71428 10.714 0 3.9933 2.0136 10.388 4.6429 2.5 1.1806-3.542-2.1429-8.9807-2.1429-13.214 0-2.4841-0.61354-1.9536-1.7857 0z"
            /><path
                id="path2489"
                style="fill-rule:evenodd;fill:#ffeeaa"
                d="m-20 219.15c0-0.31405-3.994 4.2857 1.0714 4.2857 1.4588 0 3.2978-6.0334-1.0714-4.2857z"
            /><path
                id="path2493"
                style="fill-rule:evenodd;fill:#ffeeaa"
                d="m-77.143 265.22c-1.117 0-4.6429 7.7702-4.6429 8.9286 0 1.813 8.792 1.292 10.357 2.8571 2.2206 2.2206 6.4775-1.0347 0.71428-5.3571-3.0178-2.2633-4.6828-2.937-6.4286-6.4286z"
            /><path
                id="path2495"
                style="fill-rule:evenodd;fill:#ffeeaa"
                d="m7.1429 317.01c-0.32761-0.24571 5.3192 4.3655 9.2857 5.3571 2.0633 0.51583 7.8264 8.8516 8.5714 10.714 1.4658 3.6646 3.8423 5.9236 7.5 7.1429 2.6172 0.87239 4.7632 1.6673 7.1429 2.8571 4.3177 2.1589-2.6668 5.3571-4.6429 5.3571-3.7963 0-4.5738-6.7857-9.2857-6.7857-6.365 0-6.8324-0.4038-11.429-5-2.8776-2.8776-0.10947-6.6475-1.7857-10-2.2842-4.5684-6.547-3.6937-5.3571-9.6429z"
            /><path
                id="path2497"
                style="fill-rule:evenodd;fill:#ffeeaa"
                d="m-3.2143 361.65c-2.0178-4.0357-11.234-1.6337-12.857 1.0714-2.8064 4.6773 9.7945 5.7143 11.786 5.7143h2.1429c3.9206 0 4.6196-1.2616 8.5714 0.71429 3.5528 1.7764 2.6389 5.3571 7.5 5.3571 4.2966 0 5.8607-1.4813 10.357-0.35714 5.0463 1.2616 6.4699-4.6325 2.1429-5.7143-5.5489-1.3872-9.9193-2.6459-15.714-0.71428-2.0679 0.6893-8.8576-2.1074-11.071-3.2143-1.4749-0.73747-1.9517-0.59352-2.8571-2.8571z"
            /><path
                id="path2499"
                style="fill-rule:evenodd;fill:#ffeeaa"
                d="m-76.786 303.08c-2.126-1.063-3.9179 6.7857 1.7857 6.7857 3.0566 0 3.2533-7.0758 4.6429-8.9286 3.6318-4.8425 5.4223-3.7988-1.0714-2.5-3.2594 0.65188-3.7531 1.9695-5.3571 4.6429z"
            /></g
          ></g
        ><path
            id="path3415"
            style="fill-rule:evenodd;fill:url(#linearGradient5237)"
            d="m373.59-35.91v12.673h36.531v-6.9014l-36.531-5.7721z"
        /></g
      ></g
    ><rect
        id="rect4875"
        ry="0"
        style="filter:url(#filter4881);stroke:#000000;stroke-width:1.013;fill:none"
        rx="0"
        transform="matrix(1.0412 0 0 1.0412 -17.697 -.34898)"
        height="34.134"
        width="34.134"
        y="-8.5871"
        x="412.97"
    /></g
  >
<metadata
    ><rdf:RDF
      ><cc:Work
        ><dc:format
          >image/svg+xml</dc:format
        ><dc:type
            rdf:resource="http://purl.org/dc/dcmitype/StillImage"
        /><cc:license
            rdf:resource="http://creativecommons.org/licenses/publicdomain/"
        /><dc:publisher
          ><cc:Agent
              rdf:about="http://openclipart.org/"
            ><dc:title
              >Openclipart</dc:title
            ></cc:Agent
          ></dc:publisher
        ><dc:title
          >Fire, Feu</dc:title
        ><dc:date
          >2010-07-09T15:41:46</dc:date
        ><dc:description
        /><dc:source
          >https://openclipart.org/detail/71965/fire-feu-by-scottmeyer</dc:source
        ><dc:creator
          ><cc:Agent
            ><dc:title
              >scottmeyer</dc:title
            ></cc:Agent
          ></dc:creator
        ><dc:subject
          ><rdf:Bag
            ><rdf:li
              >Feu</rdf:li
            ><rdf:li
              >Fire</rdf:li
            ></rdf:Bag
          ></dc:subject
        ></cc:Work
      ><cc:License
          rdf:about="http://creativecommons.org/licenses/publicdomain/"
        ><cc:permits
            rdf:resource="http://creativecommons.org/ns#Reproduction"
        /><cc:permits
            rdf:resource="http://creativecommons.org/ns#Distribution"
        /><cc:permits
            rdf:resource="http://creativecommons.org/ns#DerivativeWorks"
        /></cc:License
      ></rdf:RDF
    ></metadata
  ></svg
>
</font>
</defs>
</svg>
