<?xml version="1.0" encoding="UTF-8"?>

<svg version="1.2" baseProfile="tiny" width="95.5mm" height="38.35mm" viewBox="988 9102 9550 3835" preserveAspectRatio="xMidYMid" fill-rule="evenodd" stroke-width="28.222" stroke-linejoin="round" xmlns="http://www.w3.org/2000/svg" xmlns:xlink="http://www.w3.org/1999/xlink" xml:space="preserve">
 <defs>
  <font id="EmbeddedFont_1" horiz-adv-x="2048">
   <font-face font-family="Cinzel Decorative embedded" units-per-em="2048" font-weight="normal" font-style="normal" ascent="1984" descent="767"/>
   <missing-glyph horiz-adv-x="2048" d="M 0,0 L 2047,0 2047,2047 0,2047 0,0 Z"/>
   <glyph unicode="z" horiz-adv-x="1139" d="M 172,1251 L 172,1214 152,1214 152,1473 C 172,1464 208,1456 260,1448 312,1440 348,1436 368,1436 387,1436 398,1436 399,1436 L 971,1436 C 1038,1436 1089,1439 1124,1447 1160,1454 1181,1460 1188,1462 L 1188,1444 311,61 963,61 C 1035,61 1095,85 1142,131 1189,177 1223,239 1243,315 L 1264,315 1196,0 123,0 123,18 983,1374 293,1374 C 259,1373 230,1361 207,1337 184,1314 172,1285 172,1251 Z"/>
   <glyph unicode="y" horiz-adv-x="1376" d="M 1378,1413 L 1350,1413 C 1309,1413 1270,1402 1234,1379 1198,1357 1167,1328 1143,1294 L 739,639 739,150 C 739,114 752,84 777,58 802,33 834,20 870,20 L 895,20 895,0 449,0 449,20 475,20 C 511,20 541,33 566,57 592,82 605,112 606,147 L 606,641 215,1294 C 195,1327 166,1355 128,1378 90,1402 51,1413 10,1413 L -18,1413 -18,1434 485,1434 485,1413 459,1413 C 429,1413 406,1399 389,1372 381,1357 377,1342 377,1328 377,1314 380,1300 387,1286 L 694,713 1022,1288 C 1029,1302 1032,1315 1032,1329 1032,1343 1027,1357 1018,1372 1001,1399 978,1413 948,1413 L 924,1413 924,1434 1378,1434 1378,1413 Z"/>
   <glyph unicode="w" horiz-adv-x="2038" d="M 1630,1434 L 2034,1434 2034,1413 2017,1413 C 1982,1413 1947,1403 1912,1381 1877,1360 1852,1328 1837,1286 L 1497,203 C 1470,117 1455,41 1452,-25 L 1434,-25 1016,1147 705,203 C 679,118 664,42 662,-25 L 643,-25 178,1288 C 162,1329 137,1360 102,1381 68,1403 33,1413 -2,1413 L -18,1413 -18,1434 436,1434 436,1413 418,1413 C 389,1413 368,1404 353,1385 339,1367 332,1350 332,1333 332,1317 334,1302 338,1288 L 649,291 1030,1466 1049,1464 1452,332 1726,1290 C 1731,1305 1733,1321 1733,1336 1733,1352 1726,1369 1712,1387 1698,1404 1677,1413 1649,1413 L 1630,1413 1630,1434 Z"/>
   <glyph unicode="u" horiz-adv-x="1404" d="M 1505,1413 L 1473,1413 C 1444,1413 1419,1404 1398,1385 1377,1367 1365,1344 1364,1317 L 1364,506 C 1364,346 1313,217 1212,119 1111,20 977,-29 809,-29 641,-29 505,20 400,118 296,215 244,344 244,504 L 244,1311 C 244,1352 226,1382 190,1401 174,1409 156,1413 135,1413 L 102,1413 102,1434 518,1434 518,1413 485,1413 C 455,1413 430,1404 410,1385 389,1367 378,1343 377,1315 L 377,532 C 377,384 417,264 497,172 577,81 683,35 817,35 951,35 1060,78 1143,165 1226,252 1268,365 1268,506 L 1268,1315 C 1266,1343 1255,1367 1235,1385 1214,1404 1189,1413 1159,1413 L 1126,1413 1126,1434 1505,1434 1505,1413 Z"/>
   <glyph unicode="t" horiz-adv-x="1192" d="M 1206,1251 C 1206,1284 1195,1312 1171,1336 1148,1360 1121,1373 1090,1374 L 700,1374 700,147 C 702,112 715,82 740,57 766,33 796,20 831,20 L 858,20 858,0 410,0 410,20 436,20 C 472,20 502,33 527,57 553,82 566,111 567,145 L 567,1374 178,1374 C 145,1373 118,1360 95,1336 73,1312 61,1284 61,1251 L 61,1217 41,1214 41,1473 C 61,1464 97,1456 147,1448 198,1440 244,1436 287,1436 L 979,1436 C 1046,1436 1101,1441 1146,1451 1190,1461 1217,1468 1227,1473 L 1227,1214 1206,1217 1206,1251 Z"/>
   <glyph unicode="s" horiz-adv-x="742" d="M 125,84 C 121,103 119,140 119,195 119,249 129,307 150,369 L 168,369 C 167,354 166,339 166,324 166,240 191,171 242,116 292,60 359,33 442,33 528,33 599,59 654,111 710,162 737,228 737,306 737,385 711,449 657,498 L 264,862 C 190,930 154,1013 154,1110 154,1207 186,1290 251,1359 316,1428 403,1462 514,1462 566,1462 625,1455 690,1442 L 770,1442 770,1190 752,1190 C 752,1254 729,1305 685,1343 641,1382 584,1401 514,1401 444,1401 386,1378 339,1331 292,1285 268,1227 268,1157 268,1087 296,1027 350,977 L 754,604 C 822,541 856,455 856,346 856,237 821,147 752,77 682,6 589,-29 473,-29 413,-29 349,-19 282,-1 214,17 162,46 125,84 Z"/>
   <glyph unicode="r" horiz-adv-x="1271" d="M 545,1370 L 414,1370 414,150 C 414,114 426,84 452,58 477,33 508,20 545,20 L 569,20 571,0 123,0 123,20 150,20 C 185,20 215,33 241,57 266,82 279,112 281,147 L 281,1284 C 279,1320 266,1350 241,1375 215,1400 185,1413 150,1413 L 123,1413 123,1434 676,1434 C 800,1434 898,1399 969,1330 1040,1261 1075,1172 1075,1062 1075,952 1041,857 974,777 906,697 824,657 727,657 748,648 772,629 800,601 828,573 853,544 875,514 992,346 1068,243 1104,204 1139,165 1165,138 1180,124 1195,110 1211,96 1229,82 1247,68 1264,57 1282,49 1322,30 1364,20 1409,20 L 1409,0 1296,0 C 1238,0 1183,11 1133,32 1082,53 1044,75 1019,97 994,120 972,142 953,163 935,184 884,255 801,375 717,495 669,564 655,581 642,598 627,614 612,631 569,677 525,700 481,700 L 481,721 C 492,720 507,719 524,719 542,719 564,720 590,721 759,725 866,796 909,934 918,961 922,987 922,1011 922,1035 922,1050 922,1057 919,1148 895,1222 850,1278 805,1334 744,1364 668,1368 635,1369 594,1370 545,1370 Z"/>
   <glyph unicode="p" horiz-adv-x="953" d="M 1079,1038 C 1079,978 1067,922 1042,870 997,773 918,706 805,668 765,654 731,647 702,647 618,647 545,663 483,694 L 483,715 C 583,693 675,704 760,748 835,786 886,849 913,936 922,963 926,989 926,1014 926,1038 926,1053 926,1059 923,1154 898,1231 850,1287 802,1344 735,1372 649,1372 L 414,1372 414,150 C 415,114 428,84 454,58 479,33 509,20 545,20 L 571,20 571,0 123,0 123,20 150,20 C 185,20 215,33 241,58 266,84 279,114 281,150 L 281,1294 C 276,1328 262,1357 238,1379 213,1402 184,1413 150,1413 L 125,1413 123,1434 657,1434 C 788,1434 892,1398 967,1328 1042,1258 1079,1161 1079,1038 Z"/>
   <glyph unicode="o" horiz-adv-x="1562" d="M 301,1256 C 447,1394 637,1462 869,1462 1102,1462 1292,1394 1438,1256 1584,1119 1657,939 1657,717 1657,494 1584,314 1438,177 1292,40 1102,-29 869,-29 637,-29 447,40 301,177 155,314 82,494 82,717 82,939 155,1119 301,1256 Z M 413,221 C 528,96 680,33 868,33 1057,33 1209,96 1324,221 1439,347 1497,512 1497,717 1497,922 1439,1087 1324,1212 1209,1338 1057,1401 868,1401 680,1401 528,1338 413,1212 297,1087 240,922 240,717 240,512 297,347 413,221 Z"/>
   <glyph unicode="n" horiz-adv-x="1536" d="M 1593,1413 C 1559,1413 1530,1401 1505,1377 1481,1353 1468,1324 1466,1290 L 1466,233 C 1466,154 1471,79 1481,8 L 1485,-29 1466,-29 350,1163 350,143 C 350,109 362,80 387,56 412,32 441,20 475,20 L 514,20 514,0 92,0 92,20 131,20 C 165,20 195,32 219,56 244,80 256,110 256,145 L 256,1208 C 256,1292 251,1366 242,1432 L 238,1464 258,1464 1374,272 1374,1288 C 1373,1324 1360,1353 1335,1377 1311,1401 1281,1413 1247,1413 L 1208,1413 1208,1434 1630,1434 1630,1413 1593,1413 Z"/>
   <glyph unicode="m" horiz-adv-x="1827" d="M 1843,20 L 1876,20 1876,0 1432,0 1432,18 1462,18 C 1485,18 1505,27 1522,45 1538,63 1545,83 1542,107 L 1450,1137 1020,180 C 982,97 958,27 950,-29 L 930,-29 406,1108 317,107 C 315,85 322,65 338,46 354,28 374,18 397,18 L 428,18 428,0 31,0 31,20 63,20 C 102,20 135,32 163,55 191,79 208,110 213,150 L 367,1462 387,1462 958,227 1518,1462 1536,1462 1694,150 C 1699,110 1716,79 1745,55 1774,32 1806,20 1843,20 Z"/>
   <glyph unicode="l" horiz-adv-x="953" d="M 150,20 C 185,20 215,33 241,58 266,84 279,114 281,150 L 281,1284 C 279,1320 266,1350 241,1375 215,1400 185,1413 150,1413 L 123,1413 123,1434 571,1434 571,1413 545,1413 C 496,1413 458,1392 432,1350 420,1329 414,1307 414,1284 L 414,63 707,63 C 808,63 885,86 938,131 991,176 1036,243 1071,332 L 1092,332 973,0 123,0 123,20 150,20 Z"/>
   <glyph unicode="i" horiz-adv-x="451" d="M 150,20 C 185,20 215,33 241,58 266,84 279,114 281,150 L 281,1286 C 279,1322 266,1352 241,1376 215,1401 185,1413 150,1413 L 123,1413 123,1434 571,1434 571,1413 545,1413 C 509,1413 479,1401 454,1376 428,1352 415,1322 414,1286 L 414,150 C 414,114 427,84 453,58 479,33 509,20 545,20 L 571,20 571,0 123,0 123,20 150,20 Z"/>
   <glyph unicode="h" horiz-adv-x="1403" d="M 1120,20 C 1156,20 1186,33 1211,58 1237,84 1250,113 1251,147 L 1251,678 414,678 414,147 C 414,112 427,82 453,57 479,33 509,20 545,20 L 571,20 571,0 123,0 123,20 150,20 C 185,20 215,33 241,57 266,82 279,112 281,147 L 281,1286 C 279,1322 266,1352 241,1376 215,1401 185,1413 150,1413 L 123,1413 123,1434 571,1434 571,1413 545,1413 C 509,1413 479,1401 454,1376 428,1352 415,1322 414,1286 L 414,739 1251,739 1251,1286 C 1250,1335 1228,1372 1186,1397 1165,1408 1143,1413 1120,1413 L 1094,1413 1094,1434 1542,1434 1542,1413 1516,1413 C 1480,1413 1450,1400 1424,1375 1399,1350 1386,1320 1384,1284 L 1384,147 C 1386,112 1399,82 1424,57 1450,33 1480,20 1516,20 L 1542,20 1542,0 1094,0 1094,20 1120,20 Z"/>
   <glyph unicode="g" horiz-adv-x="1456" d="M 858,-29 C 640,-27 463,42 327,178 191,315 123,494 123,717 123,939 191,1119 327,1256 463,1394 640,1462 858,1462 1047,1462 1212,1416 1356,1323 L 1397,1034 1378,1034 C 1348,1152 1288,1242 1197,1306 1106,1369 993,1401 858,1401 685,1401 544,1338 437,1212 330,1087 276,922 276,717 276,512 330,347 437,222 544,97 685,34 858,33 947,33 1031,48 1111,80 1191,111 1261,155 1321,211 L 1321,573 C 1321,603 1312,626 1293,642 1275,658 1249,666 1217,666 L 1184,666 1184,686 1585,686 1585,666 1554,666 C 1520,666 1494,658 1477,642 1459,626 1451,603 1452,573 L 1452,236 C 1417,189 1374,147 1325,111 1276,74 1210,41 1127,13 1045,-15 955,-29 858,-29 Z"/>
   <glyph unicode="f" horiz-adv-x="848" d="M 967,1411 L 967,1239 946,1239 946,1270 C 946,1297 937,1321 918,1340 898,1360 874,1370 846,1370 L 414,1370 414,737 760,737 C 787,739 810,749 829,768 849,787 858,810 858,838 L 858,868 879,868 879,545 858,545 858,575 C 858,603 849,626 830,645 812,664 789,674 762,676 L 414,676 414,150 C 414,114 427,84 453,58 479,33 509,20 545,20 L 571,20 571,0 123,0 123,20 150,20 C 185,20 215,33 241,58 266,84 279,114 281,150 L 281,1296 C 281,1329 267,1357 241,1379 214,1402 184,1413 150,1413 L 125,1413 123,1434 723,1434 C 765,1434 811,1438 861,1446 911,1454 946,1462 967,1470 L 967,1411 Z"/>
   <glyph unicode="e" horiz-adv-x="953" d="M 150,20 C 185,20 215,33 241,58 266,84 279,114 281,150 L 281,1296 C 281,1329 268,1357 242,1379 216,1402 185,1413 150,1413 L 125,1413 123,1434 723,1434 C 765,1434 811,1438 861,1446 911,1454 946,1462 967,1470 L 967,1212 946,1212 946,1249 C 946,1282 935,1310 912,1333 890,1356 863,1369 831,1370 L 414,1370 414,737 760,737 C 787,739 810,749 829,768 849,787 858,811 858,840 L 858,868 879,868 879,545 858,545 858,575 C 858,603 849,626 830,645 812,664 789,674 762,676 L 414,676 414,63 707,63 C 808,63 885,86 938,131 991,176 1036,243 1071,332 L 1092,332 973,0 123,0 123,20 150,20 Z"/>
   <glyph unicode="c" horiz-adv-x="1324" d="M 854,-29 C 638,-27 463,42 327,178 191,315 123,495 123,718 123,941 191,1121 327,1257 463,1394 642,1462 866,1462 1049,1462 1211,1416 1352,1323 L 1393,1034 1374,1034 C 1344,1152 1283,1242 1192,1306 1100,1369 992,1401 866,1401 687,1401 544,1339 437,1214 330,1090 276,926 276,721 276,516 329,351 435,226 541,101 681,37 854,33 1007,33 1135,74 1237,158 1348,248 1414,395 1438,598 L 1454,598 1430,276 C 1305,73 1113,-29 854,-29 Z"/>
   <glyph unicode="a" horiz-adv-x="1482" d="M 1466,20 L 1483,20 1483,0 1022,0 1022,20 1040,20 C 1069,20 1091,30 1105,48 1119,67 1126,84 1126,100 1126,117 1124,133 1118,150 L 987,498 434,498 297,147 C 291,131 289,115 289,99 289,84 296,67 310,48 325,30 346,20 375,20 L 393,20 393,0 -18,0 -18,20 0,20 C 34,20 68,31 100,53 133,75 160,107 180,150 L 643,1251 C 694,1362 719,1432 719,1462 L 737,1462 1286,150 C 1305,107 1331,75 1364,53 1397,31 1431,20 1466,20 Z M 459,559 L 963,559 717,1217 459,559 Z"/>
   <glyph unicode="W" horiz-adv-x="2461" d="M 2441,1933 C 2451,1933 2460,1933 2468,1933 L 2468,1913 C 2404,1910 2343,1895 2286,1868 2228,1840 2180,1808 2140,1770 2101,1733 2064,1688 2030,1634 1975,1550 1929,1453 1890,1343 L 1497,203 C 1470,117 1455,41 1452,-25 L 1434,-25 1016,1145 686,113 C 637,-42 558,-162 449,-248 369,-312 281,-344 182,-344 148,-344 112,-340 74,-332 L 78,-311 C 98,-315 122,-317 148,-317 175,-317 211,-309 255,-293 299,-276 343,-247 387,-205 476,-119 544,-11 592,119 L 178,1288 C 162,1329 137,1360 102,1381 68,1403 33,1413 -2,1413 L -18,1413 -18,1434 436,1434 436,1413 418,1413 C 389,1413 368,1404 353,1385 339,1367 332,1350 332,1333 332,1317 334,1302 338,1288 L 649,291 1030,1466 1049,1464 1454,330 1757,1343 C 1793,1462 1847,1569 1921,1665 2058,1844 2231,1933 2441,1933 Z"/>
   <glyph unicode="T" horiz-adv-x="1403" d="M -119,1026 C -161,1077 -182,1127 -182,1177 -182,1226 -171,1269 -147,1306 -124,1342 -87,1373 -35,1398 17,1423 76,1436 141,1436 L 981,1436 C 1023,1436 1070,1440 1121,1448 1172,1456 1208,1464 1229,1473 L 1229,1214 1208,1217 1208,1251 C 1208,1284 1197,1312 1174,1336 1150,1360 1123,1373 1092,1374 L 702,1374 702,147 C 704,98 726,61 768,37 788,26 810,20 834,20 L 860,20 860,0 412,0 412,20 438,20 C 474,20 504,33 529,57 555,82 568,111 569,145 L 569,1374 141,1374 C 32,1374 -47,1339 -96,1270 -122,1234 -135,1197 -135,1158 -135,1119 -124,1079 -102,1036 L -119,1026 Z"/>
   <glyph unicode="S" horiz-adv-x="954" d="M 244,545 C 173,452 137,352 137,244 137,115 191,16 299,-55 362,-98 433,-119 513,-119 593,-119 662,-103 721,-72 831,-14 894,82 907,217 909,227 909,236 909,246 909,296 895,351 867,410 839,468 794,522 731,571 L 363,862 C 282,925 242,1006 242,1106 242,1206 274,1290 338,1359 402,1428 489,1462 598,1462 653,1462 712,1455 776,1442 L 858,1442 862,1190 842,1190 C 840,1255 817,1307 771,1345 725,1382 668,1401 599,1401 530,1401 472,1378 426,1332 380,1286 356,1228 356,1156 356,1084 386,1025 446,977 L 825,678 C 976,559 1051,416 1051,248 1051,122 1001,14 901,-76 815,-154 700,-193 557,-193 470,-193 392,-176 324,-143 195,-83 118,19 92,164 88,186 86,213 86,247 86,280 96,326 115,384 134,442 171,500 225,559 L 244,545 Z"/>
   <glyph unicode="O" horiz-adv-x="1641" d="M 567,956 C 562,974 559,990 559,1003 559,1015 560,1030 561,1047 563,1063 566,1085 570,1114 575,1143 584,1171 598,1199 612,1227 627,1254 645,1280 663,1306 686,1330 714,1352 742,1374 773,1393 807,1409 879,1445 967,1462 1071,1462 1280,1462 1450,1393 1582,1254 1714,1116 1780,939 1780,723 1780,507 1702,328 1546,185 1391,43 1193,-29 954,-29 715,-29 517,42 359,184 202,326 123,511 123,737 123,883 157,1013 225,1126 294,1240 391,1328 518,1393 L 530,1374 C 442,1315 378,1231 339,1120 300,1010 281,892 281,768 281,537 343,357 469,227 595,98 756,33 952,33 1149,33 1310,98 1435,228 1560,359 1622,530 1622,743 1622,928 1573,1083 1474,1210 1375,1337 1235,1401 1055,1401 974,1401 901,1386 836,1358 717,1307 638,1224 600,1108 589,1074 584,1044 584,1020 584,995 585,976 588,961 L 567,956 Z"/>
   <glyph unicode="N" horiz-adv-x="2541" d="M 2161,-311 C 2051,-345 1953,-352 1866,-330 1774,-305 1695,-267 1628,-215 1564,-163 1498,-101 1432,-29 L 352,1167 352,143 C 354,96 375,60 416,37 435,26 455,20 477,20 L 516,20 516,0 94,0 94,20 133,20 C 167,20 197,32 221,56 246,80 258,110 258,145 L 258,1270 C 251,1279 238,1297 217,1324 197,1351 180,1372 166,1389 152,1405 134,1426 111,1453 87,1480 66,1501 46,1518 26,1534 3,1553 -23,1575 -63,1606 -107,1629 -154,1642 -200,1656 -239,1663 -271,1663 -303,1663 -338,1658 -375,1647 L -383,1667 C -317,1694 -254,1708 -194,1708 -133,1708 -81,1701 -37,1687 7,1672 54,1647 104,1610 155,1573 196,1539 228,1507 260,1476 299,1435 344,1384 L 1376,238 1376,1288 C 1375,1324 1362,1353 1337,1377 1313,1401 1283,1413 1249,1413 L 1210,1413 1210,1434 1632,1434 1632,1413 1595,1413 C 1561,1413 1532,1401 1507,1377 1483,1353 1470,1324 1468,1290 L 1468,133 C 1482,118 1502,96 1527,66 1552,36 1570,14 1580,2 1590,-10 1606,-28 1626,-51 1647,-74 1664,-92 1678,-105 1693,-118 1710,-135 1732,-155 1753,-174 1773,-190 1791,-202 1809,-213 1830,-227 1853,-242 1886,-261 1923,-275 1965,-285 2007,-294 2041,-299 2067,-299 2094,-299 2122,-296 2152,-291 L 2161,-311 Z"/>
   <glyph unicode="L" horiz-adv-x="1774" d="M 512,-39 C 803,-140 1021,-209 1166,-245 1312,-281 1437,-299 1541,-299 1646,-299 1761,-275 1886,-227 L 1896,-244 C 1730,-358 1562,-416 1393,-416 1219,-416 1022,-362 801,-254 630,-169 524,-118 483,-100 337,-35 217,-1 123,0 L 123,20 150,20 C 185,20 215,33 241,57 266,82 279,113 281,150 L 281,1284 C 279,1320 266,1350 241,1375 215,1400 185,1413 150,1413 L 123,1413 123,1434 571,1434 571,1413 545,1413 C 509,1413 479,1400 453,1375 427,1350 414,1320 414,1284 L 414,102 C 414,78 415,59 418,46 421,33 429,18 444,2 459,-14 482,-28 512,-39 Z"/>
   <glyph unicode="K" horiz-adv-x="1826" d="M 545,20 L 571,20 571,0 123,0 123,20 150,20 C 185,20 215,33 241,58 266,84 279,114 281,150 L 281,1286 C 279,1322 266,1352 241,1376 215,1401 185,1413 150,1413 L 123,1413 123,1434 571,1434 571,1413 545,1413 C 509,1413 479,1401 454,1376 428,1352 415,1322 414,1286 L 414,150 C 414,114 427,84 453,58 479,33 509,20 545,20 Z M 1964,-307 L 1964,-328 C 1912,-340 1860,-346 1808,-346 1584,-346 1367,-234 1157,-10 L 479,713 963,1319 C 973,1333 979,1345 979,1356 979,1367 977,1376 973,1384 962,1405 942,1415 913,1415 L 893,1415 893,1434 1325,1434 1325,1415 1317,1415 C 1227,1415 1153,1383 1096,1319 L 619,768 1315,25 C 1405,-72 1506,-152 1619,-214 1732,-276 1847,-307 1964,-307 Z"/>
   <glyph unicode="H" horiz-adv-x="1403" d="M 1493,20 L 1518,20 1518,0 1071,0 1071,20 1098,20 C 1132,20 1162,32 1187,56 1212,80 1226,110 1229,145 L 1229,678 436,678 436,143 C 436,-48 390,-176 297,-242 255,-272 200,-294 133,-309 L 123,-291 C 184,-258 230,-208 259,-139 288,-71 303,23 303,143 L 303,1286 C 303,1322 290,1352 264,1376 238,1401 208,1413 172,1413 L 147,1413 147,1434 594,1434 594,1413 567,1413 C 532,1413 501,1401 476,1376 451,1352 438,1322 436,1286 L 436,739 1229,739 1229,1249 C 1230,1424 1269,1546 1346,1614 1392,1655 1455,1684 1534,1702 L 1544,1683 C 1483,1651 1437,1600 1407,1532 1377,1464 1362,1369 1362,1249 L 1362,150 C 1362,114 1375,84 1400,58 1425,33 1456,20 1493,20 Z"/>
   <glyph unicode="F" horiz-adv-x="1059" d="M 1165,575 C 1165,603 1156,626 1138,645 1119,664 1096,674 1069,676 L 414,676 414,150 C 414,114 427,84 453,58 479,33 509,20 545,20 L 571,20 571,0 123,0 123,20 150,20 C 185,20 215,33 241,58 266,84 279,114 281,150 L 281,1296 C 281,1329 267,1357 241,1379 214,1402 184,1413 150,1413 L 125,1413 123,1434 723,1434 C 782,1434 834,1438 879,1448 924,1457 953,1465 967,1470 L 967,1239 946,1239 946,1270 C 946,1297 937,1321 918,1340 898,1360 874,1370 846,1370 L 414,1370 414,737 1067,737 C 1094,739 1118,749 1137,768 1156,787 1165,811 1165,840 L 1165,868 1186,868 1186,545 1165,545 1165,575 Z"/>
   <glyph unicode="E" horiz-adv-x="1112" d="M 150,20 C 185,20 215,33 241,58 266,84 279,114 281,150 L 281,1296 C 281,1329 268,1357 242,1379 216,1402 185,1413 150,1413 L 125,1413 123,1434 539,1434 C 581,1434 627,1438 677,1446 727,1454 762,1462 782,1470 L 782,1212 762,1212 762,1249 C 762,1282 751,1310 728,1333 706,1356 679,1369 647,1370 L 414,1370 414,737 803,737 C 830,739 853,749 872,768 892,787 901,811 901,840 L 901,868 922,868 922,545 901,545 901,575 C 901,603 892,626 873,645 855,664 832,674 805,676 L 414,676 414,63 850,63 C 951,63 1028,86 1081,131 1135,176 1179,243 1214,332 L 1235,332 1116,0 123,0 123,20 150,20 Z"/>
   <glyph unicode="C" horiz-adv-x="1536" d="M 1632,719 C 1632,484 1569,301 1443,169 1317,37 1138,-29 907,-29 752,-29 611,4 486,70 361,135 265,225 196,338 127,451 92,578 92,718 92,858 126,984 195,1098 263,1211 357,1300 477,1365 597,1430 731,1462 879,1462 971,1462 1066,1450 1162,1424 1258,1399 1339,1365 1403,1323 L 1444,1034 1425,1034 C 1397,1149 1331,1239 1227,1304 1123,1368 1008,1401 881,1401 699,1401 548,1336 427,1207 306,1078 246,916 246,721 246,526 308,362 433,230 558,99 722,33 924,33 1126,33 1291,98 1418,229 1546,360 1610,540 1610,768 L 1630,768 C 1632,752 1632,735 1632,719 Z"/>
   <glyph unicode="B" horiz-adv-x="1112" d="M 811,893 C 786,867 758,848 727,836 861,816 963,769 1032,693 1102,617 1137,525 1137,416 1137,283 1083,176 977,94 870,12 730,-29 557,-29 384,-29 248,14 150,99 51,185 2,305 2,461 2,469 2,477 2,485 L 25,489 C 52,286 137,154 279,94 L 279,1286 C 276,1323 262,1353 237,1377 211,1401 181,1413 145,1413 L 121,1413 121,1434 465,1434 C 593,1434 696,1404 773,1346 850,1287 889,1210 889,1115 889,1020 863,946 811,893 Z M 412,1368 L 412,57 C 457,51 509,47 567,47 698,47 800,82 873,153 947,223 983,314 983,426 983,486 972,539 949,586 927,632 898,668 864,694 774,764 647,799 483,799 482,799 481,799 481,799 L 479,817 C 481,817 481,817 481,817 551,817 611,840 660,886 710,932 735,1002 735,1098 735,1278 636,1368 438,1368 L 438,1368 412,1368 Z"/>
   <glyph unicode="A" horiz-adv-x="1932" d="M 244,1503 C 332,1540 418,1559 500,1559 568,1559 638,1533 711,1483 750,1455 795,1402 844,1323 877,1268 918,1169 969,1026 L 1219,317 C 1276,159 1334,33 1394,-60 1453,-154 1507,-224 1556,-271 1606,-318 1657,-352 1710,-371 1763,-390 1807,-399 1842,-399 1877,-399 1908,-397 1935,-391 L 1937,-412 C 1872,-433 1808,-444 1745,-444 1682,-444 1619,-428 1556,-396 1494,-364 1435,-319 1380,-262 1263,-143 1163,38 1081,281 L 1001,514 440,514 299,150 C 292,133 289,117 289,100 289,84 296,67 310,48 325,30 347,20 377,20 L 393,20 393,0 -18,0 -18,20 0,20 C 33,20 65,30 96,50 128,70 154,100 174,139 L 682,1356 C 608,1461 517,1513 408,1513 358,1513 306,1503 250,1483 L 244,1503 Z M 463,575 L 981,575 819,1053 C 788,1144 759,1216 733,1268 L 463,575 Z"/>
   <glyph unicode="5" horiz-adv-x="769" d="M 221,719 C 298,735 367,743 429,743 491,743 549,734 602,715 778,652 866,526 866,338 866,261 854,192 828,130 803,68 772,17 735,-24 698,-64 657,-100 610,-133 564,-166 517,-191 469,-209 347,-251 258,-272 201,-272 168,-272 135,-271 102,-268 L 107,-248 C 109,-248 120,-248 138,-248 157,-248 189,-241 236,-228 282,-215 332,-194 386,-164 440,-134 490,-98 537,-57 583,-16 623,35 655,98 694,172 713,248 713,327 713,405 689,472 641,528 582,597 493,631 373,631 302,631 223,618 135,592 L 117,600 276,1155 682,1186 C 756,1186 810,1220 844,1288 L 864,1288 797,1073 315,1042 221,719 Z"/>
   <glyph unicode="2" horiz-adv-x="953" d="M 518,1257 C 656,1257 766,1226 848,1163 930,1100 971,1015 971,907 971,813 937,719 868,625 844,591 822,561 804,538 785,514 759,485 724,451 689,416 662,390 643,372 624,353 595,328 555,295 515,262 488,240 473,228 458,217 431,196 392,166 353,136 331,119 326,115 L 805,115 C 864,115 909,125 941,146 973,168 1008,208 1047,266 L 1067,266 969,0 119,0 119,18 C 584,401 817,696 817,903 817,997 791,1071 738,1123 686,1176 615,1202 526,1202 425,1202 346,1179 288,1132 230,1084 202,1018 205,932 L 184,932 150,1141 C 188,1175 242,1203 312,1225 383,1247 451,1257 518,1257 Z"/>
   <glyph unicode="1" horiz-adv-x="425" d="M 293,131 L 293,1100 C 293,1130 282,1155 259,1177 237,1198 210,1208 180,1208 L 137,1208 137,1229 580,1229 580,1208 537,1208 C 507,1208 481,1197 459,1176 437,1154 426,1128 426,1098 L 426,131 C 426,89 445,57 483,35 500,25 518,20 539,20 L 582,20 582,0 137,0 139,20 182,20 C 212,20 238,31 260,53 282,75 293,101 293,131 Z"/>
   <glyph unicode="." horiz-adv-x="187" d="M 250,18 C 232,1 210,-8 184,-8 158,-8 137,1 119,18 101,36 92,58 92,84 92,110 101,132 119,150 137,167 158,176 184,176 210,176 232,167 250,150 268,132 276,110 276,84 276,58 268,36 250,18 Z"/>
   <glyph unicode=")" horiz-adv-x="451" d="M 367,692 C 367,883 337,1053 278,1200 218,1348 146,1442 61,1483 L 74,1499 C 195,1457 298,1359 383,1206 468,1053 510,883 510,696 510,497 467,312 381,142 295,-28 194,-143 78,-205 L 66,-186 C 145,-132 214,-21 272,145 335,319 367,501 367,692 Z"/>
   <glyph unicode="(" horiz-adv-x="425" d="M 328,692 C 328,501 358,321 419,151 480,-19 550,-132 629,-186 L 616,-205 C 499,-143 398,-29 313,139 227,311 184,494 184,687 184,880 227,1053 311,1206 396,1359 499,1457 621,1499 L 633,1483 C 547,1442 474,1348 416,1200 357,1053 328,883 328,692 Z"/>
   <glyph unicode="&apos;" horiz-adv-x="186" d="M 72,1034 C 96,1150 109,1235 109,1289 109,1343 107,1391 104,1434 L 248,1462 C 248,1455 248,1441 248,1419 248,1397 244,1362 237,1312 229,1262 213,1207 187,1147 162,1087 130,1046 90,1024 L 72,1034 Z"/>
   <glyph unicode="&amp;" horiz-adv-x="2197" d="M 2343,-143 C 2223,-247 2090,-299 1944,-299 1840,-299 1727,-271 1606,-215 1532,-180 1464,-138 1401,-89 1338,-41 1261,21 1169,96 1045,14 905,-27 750,-27 672,-27 595,-16 520,6 411,36 319,89 246,166 169,245 131,341 131,455 131,542 152,618 194,683 235,748 293,799 367,838 308,928 279,1022 279,1119 279,1217 313,1298 381,1364 449,1429 545,1462 668,1462 823,1462 944,1414 1030,1317 L 1001,1085 981,1085 C 977,1182 948,1259 893,1316 838,1372 769,1401 686,1401 603,1401 537,1375 489,1322 442,1269 418,1204 418,1126 418,1039 445,958 501,885 556,811 648,719 775,608 903,498 1055,368 1231,219 1305,286 1365,365 1413,457 1479,578 1511,711 1511,854 1511,922 1503,990 1487,1057 1462,1159 1409,1259 1327,1356 1245,1453 1139,1535 1008,1604 L 1018,1616 C 1133,1569 1230,1509 1311,1436 1483,1279 1569,1080 1569,840 1569,690 1528,542 1448,397 1402,315 1345,243 1278,180 L 1409,74 C 1548,-38 1688,-118 1827,-166 1891,-188 1966,-199 2052,-199 2138,-199 2232,-174 2333,-125 L 2343,-143 Z M 457,147 C 554,74 664,37 786,37 905,37 1017,70 1122,135 933,294 779,424 662,526 544,629 457,716 401,788 319,712 279,608 279,477 279,346 338,236 457,147 Z"/>
   <glyph unicode=" " horiz-adv-x="503"/>
  </font>
 </defs>
 <defs>
  <font id="EmbeddedFont_2" horiz-adv-x="2048">
   <font-face font-family="Honey Script embedded" units-per-em="2048" font-weight="normal" font-style="normal" ascent="1879" descent="820"/>
   <missing-glyph horiz-adv-x="2048" d="M 0,0 L 2047,0 2047,2047 0,2047 0,0 Z"/>
   <glyph unicode="y" horiz-adv-x="848" d="M 617,-183 C 551,-173 508,-169 488,-169 469,-169 435,-177 386,-193 386,-199 387,-222 389,-261 391,-299 392,-323 392,-331 392,-651 287,-811 76,-811 6,-811 -52,-787 -99,-739 -145,-691 -169,-631 -169,-560 -169,-456 -104,-357 26,-263 119,-197 206,-156 285,-139 285,-9 281,91 272,161 280,150 270,116 241,57 215,7 181,-18 140,-18 89,-18 53,4 31,49 9,93 -2,140 -2,191 -2,258 4,353 16,478 16,489 17,509 19,537 21,564 23,585 24,600 37,670 61,705 96,705 112,705 125,700 135,691 145,683 149,669 147,650 L 125,450 C 115,338 109,258 109,209 109,114 121,66 143,66 166,66 202,161 251,350 254,369 260,418 270,498 280,577 289,649 297,715 303,760 327,783 369,785 406,786 425,771 425,739 425,707 410,637 379,530 368,490 363,352 366,114 366,85 368,33 372,-41 L 375,-115 C 363,-115 385,-108 440,-95 477,-84 505,-78 524,-78 597,-78 633,-101 633,-145 633,-153 628,-166 617,-183 Z M 291,-219 C 194,-249 110,-298 37,-363 -33,-438 -67,-511 -67,-580 -67,-620 -55,-655 -30,-685 -5,-714 24,-729 58,-729 136,-729 197,-684 239,-594 274,-519 291,-435 291,-343 L 291,-219 Z M -134,48 C -103,48 -64,120 -17,265 15,362 43,464 67,570 72,586 74,594 72,594 71,594 70,591 70,584 70,546 45,448 -5,291 -62,121 -103,36 -127,36 -143,36 -152,35 -152,34 -152,39 -146,43 -134,48 Z"/>
   <glyph unicode="w" horiz-adv-x="768" d="M 654,522 C 656,532 660,549 665,574 676,614 693,634 715,634 739,634 752,620 752,592 752,551 739,499 714,435 687,362 652,325 608,325 577,325 549,335 523,355 L 488,146 C 465,70 425,32 369,32 310,32 270,87 250,197 230,63 189,-4 126,-4 39,-4 -4,96 -4,297 -4,312 1,382 12,508 22,622 29,686 34,701 45,726 64,739 90,739 112,739 139,722 170,689 120,557 95,409 95,245 95,144 107,94 130,94 181,167 207,260 207,373 207,406 210,444 215,488 222,544 225,581 225,598 225,608 224,617 221,625 L 215,658 C 234,681 258,693 285,693 329,693 350,673 350,634 350,625 347,608 340,583 334,557 330,544 330,542 319,421 314,350 314,329 314,304 323,242 341,144 346,132 354,126 365,126 377,126 396,183 420,297 435,371 442,418 442,440 442,456 438,486 430,531 423,575 420,606 420,624 420,689 420,724 422,731 427,775 445,803 477,815 515,796 535,771 539,737 L 549,445 C 549,433 559,428 578,428 613,428 638,459 654,522 Z"/>
   <glyph unicode="u" horiz-adv-x="662" d="M 410,22 C 372,22 341,47 316,97 310,107 303,139 294,193 302,185 299,164 285,131 271,97 261,72 254,55 225,6 188,-18 140,-18 97,-18 65,3 44,46 24,87 14,129 14,171 14,240 17,322 22,419 28,559 36,637 47,655 58,672 75,681 98,681 118,681 135,673 149,657 164,641 172,625 172,609 172,592 169,574 163,556 158,537 154,522 151,511 133,403 123,280 123,140 123,95 129,72 140,72 152,72 165,84 177,108 195,146 206,172 212,186 241,255 263,341 277,444 277,446 282,476 292,535 298,575 301,601 301,614 L 299,692 C 305,739 325,762 359,759 412,759 439,741 439,707 439,701 435,688 427,669 420,649 415,637 414,631 414,617 408,565 394,477 383,401 378,341 378,297 378,183 391,126 416,126 442,126 474,192 513,325 531,388 555,477 585,591 595,620 609,634 628,634 653,634 665,620 665,590 665,542 643,455 597,329 537,124 475,22 410,22 Z"/>
   <glyph unicode="s" horiz-adv-x="319" d="M 262,185 C 262,136 253,92 234,52 204,-4 163,-32 110,-32 64,-32 24,-13 -9,25 -34,49 -46,75 -46,102 -46,138 -35,159 -13,165 12,165 25,148 25,116 43,76 61,56 78,56 126,56 151,102 151,193 151,236 138,303 112,394 97,443 91,482 92,510 101,513 103,504 97,484 92,464 85,441 77,415 69,389 62,364 55,341 41,293 18,269 -14,269 -19,269 -31,273 -50,280 5,498 32,650 32,737 32,786 56,811 104,811 157,811 184,792 184,753 184,748 180,731 174,702 167,673 163,655 163,647 163,597 180,518 212,408 245,310 262,235 262,185 Z"/>
   <glyph unicode="r" horiz-adv-x="583" d="M 321,-4 C 272,-4 232,23 200,76 186,99 178,143 177,207 174,253 174,317 177,398 L 181,556 C 181,580 162,606 123,635 123,614 107,549 75,437 75,435 71,425 63,409 L 45,378 -12,390 C -12,424 -4,472 12,533 29,595 38,642 38,675 38,685 33,707 22,739 11,771 6,796 6,813 6,893 29,934 76,934 116,934 137,907 139,855 141,844 140,821 137,786 L 133,729 C 133,722 159,704 211,675 273,644 304,607 304,564 304,522 299,452 288,357 277,266 272,202 272,163 272,113 284,88 309,88 322,88 353,158 402,299 443,419 468,509 476,571 481,613 497,634 524,634 549,634 561,618 561,584 561,539 533,430 477,259 418,84 366,-4 321,-4 Z"/>
   <glyph unicode="o" horiz-adv-x="610" d="M 607,596 C 607,535 589,463 553,379 519,300 472,261 412,261 402,261 384,269 357,285 357,280 350,247 337,187 313,118 294,75 283,56 252,6 213,-18 167,-18 56,-18 0,88 0,301 0,431 24,524 73,578 59,561 46,554 32,556 31,560 30,565 30,570 29,582 28,595 28,611 30,627 35,639 42,647 43,652 50,679 61,729 72,782 101,809 149,809 188,809 231,791 278,754 315,726 338,698 348,668 362,629 368,530 368,373 378,365 388,361 398,361 437,361 465,383 483,428 494,447 508,499 525,584 534,617 549,634 568,634 594,634 607,622 607,596 Z M 263,299 C 263,322 258,364 247,424 236,484 231,528 231,554 231,561 232,576 234,600 236,624 237,638 237,642 237,676 222,693 193,693 176,693 159,642 139,539 119,420 109,333 109,277 109,146 132,80 177,80 183,80 196,103 216,149 248,217 263,267 263,299 Z"/>
   <glyph unicode="n" horiz-adv-x="689" d="M 680,584 C 680,545 654,448 604,291 539,97 483,0 434,0 373,0 332,53 312,159 302,207 295,317 291,488 289,413 265,286 220,106 205,41 178,8 138,8 87,8 55,42 42,110 L 34,260 C 30,321 30,376 34,425 L 40,494 22,532 C 24,574 27,602 34,617 45,646 68,660 102,660 143,660 163,642 163,604 163,594 159,576 149,549 141,524 137,503 137,488 137,452 137,419 135,386 134,354 133,316 133,271 133,188 137,146 145,146 141,146 143,159 151,183 170,261 184,313 195,340 234,461 256,562 261,644 265,706 279,746 303,763 389,758 426,730 412,679 398,704 402,700 422,666 419,643 415,607 410,558 397,437 390,354 390,309 390,178 402,112 426,112 448,112 481,179 523,311 553,406 576,490 592,563 603,611 620,634 642,634 667,634 680,618 680,584 Z"/>
   <glyph unicode="l" horiz-adv-x="504" d="M 225,-28 C 146,-28 86,23 46,126 15,208 0,293 0,379 0,499 12,647 36,824 62,1010 92,1154 127,1257 134,1359 164,1409 215,1409 317,1409 368,1336 368,1189 368,1079 347,946 303,791 258,633 206,512 147,428 147,426 137,411 115,382 107,371 103,360 103,349 103,259 124,186 165,130 190,97 212,80 229,80 268,80 325,207 398,461 410,516 420,555 427,579 434,616 449,634 474,634 499,634 511,618 511,584 511,530 484,424 429,264 365,69 297,-28 225,-28 Z M 263,1295 C 159,941 107,678 107,506 132,577 165,687 208,836 246,964 265,1062 265,1132 265,1227 264,1281 263,1295 Z"/>
   <glyph unicode="k" horiz-adv-x="662" d="M 612,472 C 605,450 592,408 574,347 555,286 540,237 529,200 482,64 428,-4 365,-4 297,-4 249,31 220,101 214,114 202,163 182,249 185,245 162,226 112,192 110,166 106,130 101,84 111,56 115,34 115,18 115,-15 98,-32 62,-32 32,-32 11,2 0,71 -5,94 -8,132 -8,185 -8,304 5,483 32,721 59,957 74,1134 76,1251 71,1275 70,1294 74,1309 82,1361 102,1387 134,1387 160,1387 180,1378 196,1359 212,1339 220,1317 220,1293 220,1258 206,1180 177,1059 173,1030 163,956 146,836 125,691 111,559 103,440 84,443 109,517 176,663 216,748 259,791 305,791 339,791 368,779 391,755 415,730 427,702 427,669 427,605 410,544 375,485 355,454 326,407 287,344 284,331 282,312 282,287 282,242 288,201 299,164 313,118 333,94 357,94 381,94 406,126 434,190 462,266 496,373 534,512 536,524 540,546 547,578 554,616 570,634 596,634 621,634 633,620 633,590 633,559 626,520 612,472 Z M 325,679 C 325,693 320,701 310,701 299,701 285,683 267,649 257,631 237,586 208,512 158,389 133,319 133,301 158,301 197,352 249,455 300,552 325,627 325,679 Z"/>
   <glyph unicode="i" horiz-adv-x="397" d="M 122,1225 C 182,1225 212,1193 212,1130 212,1068 188,1036 140,1036 113,1036 89,1047 70,1068 50,1089 40,1114 40,1140 40,1159 49,1178 67,1197 85,1215 103,1225 122,1225 Z M 376,586 C 376,551 352,453 302,292 270,189 247,123 234,94 206,33 169,2 122,2 72,2 35,31 11,88 -4,129 -12,174 -12,221 -12,264 -7,337 4,442 15,546 20,622 20,669 37,686 57,695 80,695 129,695 153,678 153,644 152,637 149,627 146,616 143,604 140,589 136,572 133,555 129,540 125,525 100,404 87,302 87,217 87,140 100,102 126,102 136,102 153,133 178,194 178,195 199,253 241,367 256,428 272,498 291,577 301,615 316,634 337,634 363,634 376,618 376,586 Z"/>
   <glyph unicode="h" horiz-adv-x="662" d="M 590,314 C 558,199 538,134 532,120 504,53 468,20 424,20 332,20 282,101 273,263 272,335 271,436 270,566 273,539 235,350 157,-3 139,-13 124,-18 110,-18 43,-18 10,97 10,327 10,432 25,596 56,820 87,1043 102,1206 102,1307 102,1324 101,1343 98,1366 112,1400 142,1416 189,1413 227,1409 246,1391 246,1357 246,1338 240,1308 227,1266 219,1233 214,1208 211,1191 149,799 117,510 117,323 L 117,321 C 117,320 118,317 118,313 119,309 119,303 120,297 120,290 122,281 123,270 124,259 126,247 127,236 128,225 130,211 132,195 134,178 133,168 129,162 176,345 219,540 257,749 264,801 284,827 317,827 339,827 374,805 425,760 388,564 370,403 370,277 370,182 385,134 414,134 441,134 479,222 528,396 547,460 563,520 575,578 582,616 598,634 623,634 647,634 659,619 659,588 659,568 636,477 590,314 Z"/>
   <glyph unicode="f" horiz-adv-x="530" d="M 467,586 C 467,569 455,520 433,439 404,330 387,268 382,255 366,189 341,142 307,113 288,96 263,82 234,72 271,-73 290,-193 290,-289 290,-477 267,-611 221,-690 209,-709 185,-719 151,-719 29,-719 -30,-585 -26,-317 -18,228 29,777 114,1327 132,1343 159,1351 195,1351 223,1351 250,1337 276,1310 242,1254 219,1191 207,1123 150,788 114,518 101,314 124,311 149,287 175,242 180,234 193,205 212,155 219,152 229,160 245,178 260,196 278,230 297,279 319,335 349,441 389,596 395,622 407,634 426,634 453,634 467,618 467,586 Z M 203,-329 C 203,-164 183,-32 145,66 110,83 94,108 95,143 83,-37 77,-191 77,-321 77,-370 82,-428 92,-495 108,-584 124,-629 140,-629 154,-629 169,-589 183,-510 196,-438 203,-377 203,-329 Z"/>
   <glyph unicode="e" horiz-adv-x="530" d="M 493,590 C 493,579 483,533 462,451 411,248 359,110 306,38 272,-5 232,-26 185,-26 120,-26 69,9 30,79 2,135 -12,195 -12,259 -12,347 -3,432 14,514 41,687 85,773 145,773 179,773 210,761 238,737 266,713 280,684 280,651 280,549 251,438 194,318 170,261 141,207 109,157 109,142 120,121 141,94 158,73 175,62 191,62 245,62 310,210 388,505 411,591 430,634 446,634 477,634 493,620 493,590 Z M 185,628 C 185,661 182,677 177,677 176,677 175,674 174,670 124,520 99,382 99,257 104,271 120,326 147,423 172,510 185,578 185,628 Z"/>
   <glyph unicode="d" horiz-adv-x="663" d="M 221,683 C 189,683 154,621 118,498 88,390 73,305 73,245 73,128 82,70 100,70 118,70 144,115 180,206 206,272 227,340 243,410 243,413 244,427 246,450 248,473 251,495 254,518 259,552 261,583 261,612 261,659 248,683 221,683 Z M 360,88 C 374,88 403,156 448,291 473,368 499,458 526,559 537,609 554,634 577,634 600,634 611,618 611,584 611,539 583,430 527,259 468,84 416,-4 371,-4 296,-4 255,62 247,195 241,138 233,99 222,80 184,9 145,-26 104,-26 54,-26 15,5 -12,66 -29,102 -38,147 -38,203 -38,312 -17,436 25,574 75,735 130,815 191,815 213,815 239,803 267,779 288,764 296,757 293,757 289,757 285,755 282,750 287,792 298,876 315,1003 333,1130 347,1235 357,1317 353,1362 365,1390 392,1399 398,1401 411,1401 430,1401 476,1401 496,1374 490,1318 484,1291 473,1233 457,1144 440,1055 427,983 416,930 413,904 397,774 366,539 345,367 334,257 334,207 336,131 345,91 360,88 Z"/>
   <glyph unicode="a" horiz-adv-x="636" d="M 223,544 L 199,574 C 195,628 184,655 169,655 158,655 143,624 126,563 120,544 106,499 85,427 65,351 55,254 55,134 55,115 60,86 69,50 76,51 83,52 89,52 107,62 129,101 155,167 179,260 194,330 200,377 L 223,544 Z M 341,0 C 282,0 242,49 221,147 197,22 151,-40 84,-40 -8,-40 -52,65 -48,274 -45,328 -29,415 2,533 44,686 83,763 120,763 188,763 232,741 254,698 L 284,640 360,612 C 326,504 304,379 292,239 289,211 292,181 299,149 308,112 318,94 329,94 364,94 420,251 496,566 507,612 524,634 547,634 570,634 581,618 581,584 581,533 556,430 506,275 446,92 392,0 341,0 Z"/>
   <glyph unicode="W" horiz-adv-x="1112" d="M 1121,1052 C 1121,784 1092,545 1032,336 962,93 868,-28 749,-28 644,-28 566,66 516,254 512,262 509,272 505,284 502,295 499,304 497,310 494,316 493,319 494,318 494,318 503,317 521,317 472,63 391,-64 279,-64 93,-64 0,173 0,647 0,758 9,940 28,1191 23,1202 20,1219 20,1241 20,1301 43,1331 88,1331 114,1331 140,1322 167,1303 194,1284 208,1262 208,1237 208,1202 197,1147 176,1070 158,1003 148,958 147,934 134,824 127,680 127,502 127,414 137,327 157,239 184,117 221,56 269,56 308,56 348,103 389,196 419,267 440,336 452,405 480,568 497,795 502,1086 502,1090 501,1101 498,1119 495,1138 494,1156 494,1172 527,1186 557,1193 582,1193 625,1193 660,1173 688,1133 637,1078 611,854 611,462 611,385 620,307 639,227 664,120 700,66 745,66 808,66 867,172 922,384 957,514 983,654 1002,804 1009,863 1013,918 1014,970 1014,1030 1013,1080 1012,1121 L 1008,1276 C 1008,1284 1004,1298 996,1319 988,1341 984,1358 984,1371 984,1397 997,1409 1024,1409 1051,1409 1073,1395 1089,1365 1110,1327 1121,1222 1121,1052 Z"/>
   <glyph unicode="&apos;" horiz-adv-x="213" d="M 61,1315 C 61,1284 35,1215 -16,1108 -41,1039 -66,1004 -90,1004 -123,1004 -140,1023 -143,1060 -115,1120 -74,1234 -19,1403 34,1374 61,1345 61,1315 Z"/>
   <glyph unicode=" " horiz-adv-x="450"/>
  </font>
 </defs>
 <defs>
  <font id="EmbeddedFont_3" horiz-adv-x="2048">
   <font-face font-family="Honey Script embedded" units-per-em="2048" font-weight="bold" font-style="normal" ascent="1879" descent="794"/>
   <missing-glyph horiz-adv-x="2048" d="M 0,0 L 2047,0 2047,2047 0,2047 0,0 Z"/>
   <glyph unicode="•" horiz-adv-x="610" d="M 694,666 C 694,565 659,478 590,406 522,333 438,297 338,297 266,297 205,329 158,393 117,448 96,515 96,594 96,847 214,973 449,973 550,973 619,939 657,872 682,829 694,760 694,666 Z"/>
   <glyph unicode="y" horiz-adv-x="795" d="M -51,276 C -20,372 4,462 20,547 20,649 45,700 94,700 126,700 141,686 141,657 L 141,651 121,446 C 110,330 104,251 104,207 104,113 115,66 137,66 159,66 195,161 244,352 L 244,348 C 261,498 276,619 289,711 294,757 317,780 358,780 L 367,780 C 397,780 412,765 412,735 412,707 398,639 371,532 360,489 354,388 354,231 L 354,133 360,-41 363,-104 C 386,-96 403,-92 416,-92 458,-80 489,-74 508,-74 579,-74 614,-96 614,-139 614,-149 611,-159 604,-170 L 584,-178 C 537,-169 500,-164 473,-164 459,-164 427,-171 375,-186 375,-196 376,-219 378,-256 380,-293 381,-316 381,-326 381,-644 279,-803 74,-803 10,-803 -45,-779 -90,-731 -137,-685 -160,-625 -160,-553 -160,-451 -100,-354 20,-262 106,-195 192,-152 276,-131 274,-25 268,57 260,113 242,70 228,42 217,27 194,-1 167,-14 137,-14 63,-14 18,35 2,133 1,139 0,154 0,180 -42,60 -82,0 -119,0 -161,0 -182,12 -182,35 -182,55 -167,72 -137,86 -122,86 -94,150 -51,276 Z M 283,-338 L 283,-219 C 195,-245 119,-288 53,-348 -23,-418 -61,-493 -61,-573 -61,-612 -50,-646 -27,-676 -3,-706 25,-721 57,-721 135,-721 195,-674 236,-580 267,-506 283,-425 283,-338 Z"/>
   <glyph unicode="w" horiz-adv-x="715" d="M 35,686 C 44,707 62,717 88,717 107,717 133,700 166,668 115,538 90,395 90,238 90,150 102,102 127,94 176,171 201,260 201,363 201,393 203,429 209,471 214,513 217,550 217,580 L 213,604 205,639 C 225,661 248,672 274,672 317,672 338,653 338,616 L 336,608 C 335,603 332,592 329,574 325,557 322,540 317,522 308,416 303,348 303,319 303,280 312,220 330,139 L 328,139 C 332,128 340,123 352,123 365,123 382,177 406,287 419,347 426,393 426,426 426,442 423,472 416,516 409,560 406,590 406,606 406,674 406,709 408,711 L 408,709 C 413,750 431,778 461,793 498,773 517,747 520,713 L 528,430 C 530,421 540,416 559,416 592,416 616,444 631,500 L 635,520 C 636,534 638,546 641,557 652,597 668,616 690,616 713,616 725,603 725,575 725,537 713,487 690,426 662,352 627,315 588,315 560,315 532,322 504,334 L 471,139 C 451,67 412,31 356,31 311,31 272,67 240,139 208,46 169,0 123,0 41,0 0,77 0,231 0,320 4,408 12,494 22,612 29,677 35,686 Z"/>
   <glyph unicode="v" horiz-adv-x="293" d="M 344,575 C 344,507 328,404 297,266 259,101 210,18 152,18 67,18 25,138 25,377 25,412 25,444 27,473 28,502 29,534 29,569 26,583 25,591 25,594 25,621 38,634 66,631 115,628 139,601 139,549 139,522 137,488 131,449 126,410 123,378 123,350 123,203 135,129 160,129 167,129 184,178 213,276 244,383 260,467 260,528 L 260,666 C 256,689 252,707 248,721 L 270,725 248,725 C 248,747 258,758 279,758 322,758 344,697 344,575 Z"/>
   <glyph unicode="u" horiz-adv-x="610" d="M 287,670 C 287,713 306,735 344,735 395,735 420,718 420,684 420,679 412,654 395,610 395,597 389,548 377,463 L 377,465 C 366,380 360,321 360,287 360,177 373,123 397,123 421,123 452,190 492,324 522,433 544,515 559,571 569,600 583,614 602,614 625,614 637,600 637,571 637,528 615,435 571,293 514,111 454,20 391,20 357,20 327,46 301,96 L 301,94 281,145 C 275,134 267,117 256,93 245,69 237,51 231,39 208,3 176,-14 135,-14 94,-14 63,6 41,47 23,81 14,121 14,166 14,444 24,599 43,631 55,650 72,659 94,659 112,659 128,652 142,637 157,622 164,605 164,586 164,565 161,549 156,537 L 156,539 C 156,536 155,532 153,527 151,523 148,517 146,510 144,503 143,497 141,492 L 143,494 C 126,393 117,273 117,135 117,91 123,70 135,70 143,70 156,83 172,109 L 172,107 C 198,157 218,217 233,287 L 270,471 C 284,538 291,597 291,647 291,650 290,654 289,659 287,665 287,668 287,670 Z"/>
   <glyph unicode="t" horiz-adv-x="875" d="M 635,971 L 631,958 C 619,946 582,935 520,926 464,916 426,911 406,911 325,911 268,912 233,913 L 156,915 C 126,713 111,558 111,449 111,347 112,274 115,227 122,159 134,125 152,125 194,125 244,257 303,520 319,591 337,627 356,627 382,627 395,610 395,575 395,525 372,430 326,291 267,109 207,18 145,18 89,18 49,68 25,168 11,221 4,284 4,356 4,396 20,582 51,915 47,915 -8,917 -113,920 L -170,901 C -184,916 -198,927 -213,934 -235,942 -246,956 -246,975 -246,997 -231,1008 -203,1008 -118,1008 -30,1010 61,1016 L 61,1018 66,1141 57,1180 C 66,1203 80,1214 100,1214 118,1214 151,1199 199,1167 L 199,1112 C 199,1107 192,1074 178,1014 L 217,1014 C 279,1014 319,1013 340,1012 350,1010 448,1008 635,1004 L 635,971 Z"/>
   <glyph unicode="s" horiz-adv-x="266" d="M 231,180 C 231,42 187,-27 98,-27 66,-27 35,-14 6,12 -23,38 -37,68 -37,100 -37,136 -27,156 -8,160 11,160 20,143 20,111 34,74 51,55 70,55 112,55 133,99 133,186 133,225 122,292 98,387 97,398 91,419 80,451 51,325 22,262 -8,262 L -45,266 C 4,476 29,627 29,717 29,765 50,788 92,788 139,788 162,769 162,731 162,723 159,706 154,679 148,652 145,636 145,629 145,581 159,507 186,406 216,299 231,224 231,180 Z"/>
   <glyph unicode="r" horiz-adv-x="530" d="M 305,0 C 257,0 218,25 188,74 176,94 169,137 168,203 167,223 166,250 166,283 166,318 167,353 168,387 L 172,543 C 172,559 153,580 115,606 104,549 89,488 70,424 L 70,428 C 67,425 63,414 57,393 55,390 50,380 43,363 L -8,381 C -8,410 -1,456 14,520 29,587 37,634 37,659 37,669 31,690 20,723 11,752 6,776 6,795 6,872 28,911 72,911 111,911 131,885 131,831 L 131,817 C 131,794 130,780 129,776 L 129,770 125,709 C 125,706 149,691 197,664 257,628 287,588 287,545 287,496 282,431 272,350 263,272 258,209 258,160 258,111 270,86 293,86 308,86 337,154 379,289 421,423 445,512 451,557 456,598 472,619 498,619 520,619 530,603 530,571 530,520 505,418 455,266 396,89 346,0 305,0 Z"/>
   <glyph unicode="p" horiz-adv-x="424" d="M 387,553 C 387,426 376,315 354,219 317,54 254,-29 164,-29 134,-29 108,-14 86,16 82,25 77,32 72,39 53,-95 43,-233 43,-375 43,-481 54,-557 76,-602 76,-624 61,-635 31,-635 -23,-635 -49,-550 -49,-379 -49,-268 -35,-83 -6,176 17,406 29,572 29,676 L 29,692 C 22,703 18,713 18,721 18,751 35,766 68,766 103,766 121,741 121,690 121,687 120,677 119,658 117,640 117,629 117,625 L 117,602 133,643 C 167,726 197,768 223,768 287,768 332,747 358,705 378,670 387,620 387,553 Z M 250,684 C 240,684 231,671 221,645 220,644 215,631 207,606 203,593 195,568 182,532 128,380 99,274 96,217 121,203 133,188 133,170 133,163 129,154 121,143 121,137 119,133 117,133 117,115 122,98 132,81 142,64 154,55 166,55 199,55 229,106 256,207 L 258,217 C 280,300 291,370 291,426 L 291,453 C 292,457 293,468 293,485 L 293,549 C 293,639 279,684 250,684 Z"/>
   <glyph unicode="o" horiz-adv-x="557" d="M 578,580 C 578,511 563,444 532,379 496,296 449,254 391,254 378,254 360,259 340,268 337,261 333,242 328,211 L 328,209 C 326,206 325,203 325,201 324,198 324,195 324,190 302,125 283,80 268,55 L 270,55 C 240,9 203,-14 160,-14 53,-14 0,88 0,293 0,406 10,489 31,543 28,555 27,571 27,592 31,610 35,621 41,627 41,629 42,634 43,639 44,644 46,651 47,657 48,664 50,672 51,680 L 57,702 C 71,757 99,784 141,784 180,784 218,769 256,739 297,707 322,673 332,639 344,602 350,510 350,363 360,354 369,350 379,350 417,350 444,372 461,416 470,435 483,485 500,565 505,599 519,616 541,616 565,616 578,604 578,580 Z M 250,291 C 250,313 244,353 233,412 224,464 219,506 219,539 219,563 220,578 221,582 L 225,623 C 225,655 212,672 184,672 168,672 150,614 129,500 111,399 102,322 102,268 102,141 124,78 168,78 175,78 188,100 207,143 236,212 250,261 250,291 Z"/>
   <glyph unicode="n" horiz-adv-x="636" d="M 649,565 C 649,527 627,437 582,295 519,98 464,0 416,0 358,0 319,51 299,154 291,200 284,271 279,367 253,275 230,188 211,107 196,41 170,8 133,8 83,8 52,40 41,104 L 33,252 C 33,266 32,279 32,293 31,307 30,317 30,324 29,330 29,335 29,336 29,348 30,373 33,412 L 39,477 20,514 C 22,550 26,577 33,596 L 33,594 C 42,624 64,639 98,639 137,639 156,621 156,584 156,570 151,552 141,528 140,519 138,509 136,500 134,490 133,483 132,479 131,475 131,472 131,471 131,433 130,398 129,367 128,335 127,300 127,262 127,188 130,148 137,141 136,148 138,160 143,178 L 143,176 C 154,224 169,274 186,328 L 184,326 C 221,435 243,534 250,623 254,683 268,721 291,737 373,732 414,705 414,655 L 395,655 C 399,638 399,600 393,543 380,414 373,333 373,299 373,172 384,109 408,109 431,109 461,173 500,301 532,406 554,485 565,537 575,587 591,612 614,612 638,612 649,597 649,565 Z"/>
   <glyph unicode="m" horiz-adv-x="901" d="M 924,567 C 924,500 883,362 803,154 762,51 714,0 659,0 591,0 552,59 541,176 539,186 539,214 539,260 528,222 512,175 492,119 461,40 425,0 383,0 324,0 295,44 295,133 L 313,473 C 309,458 301,423 289,367 255,215 236,132 231,117 201,21 162,-27 113,-27 58,-27 31,41 31,176 31,220 31,259 33,295 35,366 37,406 37,414 L 20,459 20,479 C 19,483 18,489 18,496 18,575 40,614 84,614 130,614 154,583 154,520 154,485 149,438 139,379 130,320 125,273 125,238 125,208 126,172 129,131 144,164 158,213 170,279 188,378 198,430 201,434 233,564 276,629 328,629 380,629 406,578 406,477 392,382 385,295 385,217 L 385,143 C 403,143 432,216 473,360 509,490 526,569 526,596 L 526,604 C 525,606 524,608 524,610 528,636 549,649 586,649 609,649 642,636 686,608 651,439 633,310 633,221 633,137 642,94 659,94 687,94 720,150 758,260 778,326 804,414 834,524 L 834,520 C 834,530 838,547 846,571 854,597 868,610 887,610 911,610 924,596 924,567 Z"/>
   <glyph unicode="l" horiz-adv-x="451" d="M 211,-25 C 136,-25 79,27 41,131 14,206 0,288 0,377 0,703 40,993 121,1247 L 119,1245 C 126,1346 154,1397 203,1397 298,1397 346,1324 346,1178 346,1064 326,933 285,784 241,626 190,504 133,418 L 133,420 C 132,416 127,407 119,393 115,392 111,387 109,379 100,369 96,358 96,346 96,253 115,182 154,131 178,97 199,80 215,80 252,80 304,205 371,457 376,462 379,468 379,473 L 377,471 C 380,486 387,520 399,573 L 399,571 C 408,610 422,629 442,629 467,629 479,612 479,580 479,530 453,425 401,262 337,71 274,-25 211,-25 Z M 250,1122 C 250,1184 247,1225 242,1245 158,958 112,730 102,561 135,643 165,729 193,819 231,948 250,1049 250,1122 Z"/>
   <glyph unicode="k" horiz-adv-x="609" d="M 551,350 C 548,341 542,319 531,285 521,251 512,221 504,195 460,65 409,0 350,0 286,0 240,33 211,100 208,103 196,149 174,238 159,225 137,210 107,190 107,186 106,180 104,171 103,162 102,149 100,132 99,115 98,98 96,82 104,57 109,36 109,18 109,-13 92,-29 59,-29 17,-29 -4,42 -4,182 -4,297 8,474 31,713 57,953 71,1129 74,1241 71,1260 70,1274 70,1282 70,1343 89,1374 129,1374 152,1374 171,1365 186,1347 201,1328 209,1307 209,1282 209,1247 195,1169 168,1049 L 139,834 C 122,690 111,584 107,516 123,557 143,604 168,657 208,742 248,784 291,784 324,784 351,772 374,749 396,725 408,696 408,664 408,599 390,537 354,477 352,472 346,463 339,451 331,438 322,422 309,400 297,379 285,358 272,338 270,305 268,287 268,285 268,248 273,211 283,174 296,121 316,94 342,94 382,94 438,233 510,510 L 510,508 C 514,524 519,549 524,582 535,613 550,629 569,629 593,629 604,614 604,586 604,543 586,465 551,350 Z M 311,672 C 311,687 307,694 299,694 279,694 245,632 199,508 156,399 133,331 129,305 160,320 197,369 238,453 287,552 311,625 311,672 Z"/>
   <glyph unicode="i" horiz-adv-x="345" d="M 344,578 C 344,542 322,449 279,297 248,192 228,126 217,100 190,35 155,2 113,2 33,2 -6,74 -6,217 -6,266 -2,340 6,438 14,537 18,610 18,659 35,677 53,686 74,686 117,686 139,670 139,637 L 115,516 C 91,393 80,292 80,213 80,138 91,100 115,100 128,100 145,131 164,193 L 221,389 C 235,434 249,492 264,563 274,606 289,627 309,627 332,627 344,610 344,578 Z M 190,1100 C 190,1037 169,1006 127,1006 102,1006 81,1016 62,1037 44,1058 35,1082 35,1108 35,1126 43,1144 60,1163 77,1182 94,1192 111,1192 164,1192 190,1161 190,1100 Z"/>
   <glyph unicode="h" horiz-adv-x="610" d="M 565,311 C 537,205 517,140 508,117 481,53 446,20 406,20 315,20 268,100 262,260 262,261 261,330 258,467 254,451 218,295 150,0 136,-10 122,-14 107,-14 42,-14 10,98 10,324 10,433 25,595 53,809 83,1019 98,1182 98,1296 98,1302 97,1321 94,1354 109,1385 134,1401 170,1401 L 176,1401 C 214,1401 233,1382 233,1346 233,1325 228,1294 217,1253 L 217,1255 C 208,1217 202,1192 201,1180 141,780 111,493 111,319 L 78,319 C 101,319 113,309 115,287 117,276 119,257 121,229 169,384 210,557 246,750 254,796 273,819 303,819 321,819 356,797 408,754 372,560 354,400 354,274 354,180 368,133 395,133 420,133 456,218 504,389 515,430 530,490 549,569 557,609 572,629 594,629 618,629 631,614 631,584 631,570 609,479 565,311 Z"/>
   <glyph unicode="g" horiz-adv-x="901" d="M 539,-193 C 522,-193 497,-185 463,-170 370,-170 322,-168 317,-164 317,-175 318,-201 319,-244 321,-286 322,-313 322,-324 322,-457 307,-558 279,-627 236,-726 156,-776 37,-776 -45,-776 -122,-744 -195,-680 L -195,-682 C -263,-621 -297,-544 -297,-453 -297,-331 -175,-226 70,-137 81,-134 129,-121 215,-96 215,-91 214,-84 213,-76 212,-68 211,-57 210,-43 209,-29 208,-16 207,-4 L 203,39 C 171,-17 139,-45 104,-45 53,-45 14,-18 -10,35 -31,76 -41,126 -41,184 -41,277 -23,398 14,547 58,713 103,797 150,797 182,797 223,767 272,707 L 272,709 C 320,654 365,619 408,604 335,470 299,308 299,117 299,72 303,7 311,-78 380,-70 441,-66 496,-66 567,-66 602,-89 602,-137 602,-174 581,-193 539,-193 Z M 231,-338 C 231,-305 229,-257 223,-193 155,-193 101,-201 61,-217 -112,-292 -199,-377 -199,-471 -199,-526 -175,-573 -129,-614 -84,-655 -34,-676 20,-676 161,-676 231,-563 231,-338 Z M 250,555 C 250,629 222,666 166,666 162,656 145,599 117,494 80,361 61,246 61,147 61,75 71,39 90,39 124,39 160,115 199,268 233,399 250,495 250,555 Z"/>
   <glyph unicode="f" horiz-adv-x="450" d="M 436,586 C 436,568 427,522 408,449 393,388 376,322 358,250 343,190 319,143 285,111 L 287,111 C 268,94 246,81 221,72 254,-74 270,-193 270,-285 270,-473 248,-608 205,-688 195,-706 174,-715 141,-715 33,-715 -20,-590 -20,-340 L -20,-313 C -20,177 21,724 104,1327 122,1343 148,1352 182,1352 210,1352 237,1338 264,1311 230,1260 207,1197 195,1122 141,791 108,520 94,311 122,302 145,279 164,244 L 162,244 C 162,242 163,238 166,231 169,225 173,214 179,200 185,185 191,171 197,156 224,158 251,197 276,272 L 276,270 C 296,329 324,437 363,594 L 363,592 C 369,621 382,635 399,635 424,635 436,618 436,586 Z M 190,-326 C 190,-166 172,-35 135,66 122,74 106,87 88,104 77,-96 72,-237 72,-317 72,-369 76,-429 86,-496 L 86,-494 C 102,-581 117,-625 131,-625 143,-625 157,-582 172,-498 184,-425 190,-368 190,-326 Z"/>
   <glyph unicode="e" horiz-adv-x="477" d="M 461,571 C 461,554 452,509 434,438 404,306 378,215 356,166 306,42 245,-20 174,-20 111,-20 63,10 31,72 5,122 -8,182 -8,252 -8,345 -1,435 12,522 37,674 78,750 135,750 168,750 197,738 223,714 249,690 262,662 262,631 262,534 234,423 178,299 154,246 128,197 102,154 102,133 112,113 131,94 147,71 163,59 178,59 226,59 288,203 365,489 386,573 404,614 418,614 446,614 461,600 461,571 Z M 174,608 C 174,640 171,655 166,655 165,653 162,649 160,643 120,520 98,401 92,285 106,311 121,352 137,410 162,497 174,563 174,608 Z"/>
   <glyph unicode="c" horiz-adv-x="424" d="M 377,614 C 400,614 412,597 412,561 412,548 400,493 377,397 351,291 328,214 309,168 261,53 210,-4 154,-4 42,-4 -14,94 -14,291 -14,378 -2,470 23,565 55,687 98,748 150,748 173,748 197,732 221,700 246,670 258,643 258,619 258,573 241,551 207,551 186,551 165,560 143,578 102,511 82,391 82,219 82,132 100,88 137,88 199,88 259,222 317,489 323,510 329,537 336,571 L 334,571 C 343,600 358,614 377,614 Z"/>
   <glyph unicode="b" horiz-adv-x="345" d="M 367,526 C 367,435 355,329 332,209 298,40 248,-45 184,-45 150,-45 121,-19 96,33 85,18 74,10 61,10 46,10 32,19 19,38 6,56 0,76 0,96 L 4,115 4,160 C 4,373 16,583 41,791 L 92,1221 C 95,1251 96,1270 96,1280 96,1296 96,1305 94,1307 105,1331 124,1343 152,1343 L 160,1343 C 202,1343 223,1320 223,1274 223,1257 219,1232 211,1198 L 211,1200 C 204,1169 196,1129 186,1081 154,883 130,720 117,592 144,681 183,725 233,725 322,725 367,659 367,526 Z M 270,489 C 270,586 263,635 248,635 222,635 192,563 158,418 126,289 110,197 109,141 126,119 141,98 152,78 157,64 165,57 174,57 192,57 210,94 229,166 257,275 270,383 270,489 Z"/>
   <glyph unicode="a" horiz-adv-x="583" d="M 326,0 C 279,0 241,33 211,98 178,10 134,-35 80,-35 -1,-35 -41,56 -41,238 L -41,264 C -41,323 -27,409 2,522 40,667 78,739 115,739 180,739 222,720 240,682 L 270,619 346,594 C 301,451 279,330 279,231 L 279,213 C 279,132 291,92 315,92 350,92 402,246 473,555 484,595 500,614 520,614 543,614 555,598 555,565 555,522 531,422 483,266 429,89 376,0 326,0 Z M 190,356 L 211,526 190,557 C 184,609 174,635 162,635 152,635 139,608 121,555 L 117,543 C 115,540 104,498 82,418 61,341 51,246 51,131 51,83 62,57 84,51 103,66 125,114 150,195 173,268 186,322 190,356 Z"/>
   <glyph unicode="W" horiz-adv-x="1086" d="M 1102,1044 C 1102,826 1081,621 1040,428 976,126 875,-25 737,-25 672,-25 618,8 575,74 556,106 532,169 502,262 451,48 375,-59 274,-59 91,-59 0,174 0,641 0,761 9,941 27,1182 23,1198 20,1214 20,1231 20,1291 42,1321 86,1321 113,1321 140,1311 165,1291 190,1271 203,1250 203,1227 203,1184 195,1134 178,1075 156,996 145,947 143,928 131,809 125,666 125,498 125,416 134,329 154,238 181,116 218,55 264,55 304,55 343,102 383,195 414,267 435,336 444,401 470,571 487,796 494,1077 L 492,1094 C 490,1105 489,1117 487,1130 486,1144 485,1154 485,1161 524,1176 553,1184 573,1184 613,1184 649,1164 682,1124 627,1070 600,848 600,459 600,390 610,313 629,225 653,119 688,66 733,66 804,66 868,198 926,463 972,673 996,840 997,963 997,1017 997,1068 995,1116 L 991,1268 C 991,1269 987,1281 979,1305 971,1328 967,1346 967,1360 967,1386 980,1399 1008,1399 1035,1399 1055,1384 1069,1356 L 1069,1358 C 1091,1320 1102,1215 1102,1044 Z"/>
   <glyph unicode="T" horiz-adv-x="1483" d="M 1452,1253 C 1452,1221 1432,1204 1391,1204 1217,1204 1038,1196 852,1180 848,1154 831,1030 801,809 760,488 739,276 739,174 L 739,152 C 739,108 745,46 758,-33 729,-30 698,-20 664,-4 635,26 621,81 621,160 621,276 630,435 649,637 671,854 682,1010 682,1106 L 682,1137 C 681,1142 680,1151 680,1163 L 651,1163 C 606,1163 554,1161 494,1155 207,1133 63,1100 63,1055 63,1026 117,1012 223,1012 353,1012 494,1035 645,1081 601,1008 560,965 520,954 392,923 285,907 199,907 46,907 -31,967 -31,1087 -31,1156 5,1200 78,1221 L 334,1253 C 454,1268 648,1282 915,1294 1107,1304 1261,1309 1378,1309 1427,1309 1452,1292 1452,1260 L 1452,1253 Z"/>
   <glyph unicode=":" horiz-adv-x="133" d="M 203,469 C 203,423 184,399 145,399 129,399 114,407 101,423 88,439 82,457 82,477 82,494 87,510 96,525 106,541 116,549 127,549 177,532 203,506 203,469 Z M 127,145 C 167,145 186,122 186,74 186,26 167,2 127,2 90,2 72,26 72,74 72,91 77,108 89,123 101,138 113,145 127,145 Z"/>
   <glyph unicode="2" horiz-adv-x="768" d="M 766,53 C 766,14 748,-6 711,-6 L 711,12 709,10 C 709,3 672,0 600,0 L 473,0 C 423,0 355,-9 270,-27 186,-44 120,-53 74,-53 5,-53 -29,-23 -29,37 -29,52 -10,73 27,100 77,134 104,155 109,162 210,275 297,411 371,569 453,744 494,899 494,1034 494,1079 477,1116 444,1145 412,1174 371,1188 322,1188 289,1188 265,1170 250,1135 239,1109 224,1051 205,961 L 180,842 C 179,817 175,791 168,764 147,675 116,631 74,631 29,631 6,660 6,719 6,784 33,893 88,1044 119,1133 141,1186 152,1204 184,1260 229,1288 285,1288 378,1288 461,1260 535,1202 615,1141 655,1065 655,975 655,844 598,683 483,492 397,347 306,219 209,109 L 457,113 C 495,113 551,109 625,100 719,91 766,75 766,53 Z"/>
   <glyph unicode=" " horiz-adv-x="397"/>
  </font>
</defs>
</svg>
