<?xml version="1.0" encoding="UTF-8" standalone="no"?>
<svg
    xmlns:inkscape="http://www.inkscape.org/namespaces/inkscape"
    xmlns:rdf="http://www.w3.org/1999/02/22-rdf-syntax-ns#"
    xmlns="http://www.w3.org/2000/svg"
    xmlns:cc="http://creativecommons.org/ns#"
    xmlns:dc="http://purl.org/dc/elements/1.1/"
    xmlns:sodipodi="http://sodipodi.sourceforge.net/DTD/sodipodi-0.dtd"
    id="svg2"
    style="stroke-linejoin:round;stroke-width:28.222;fill-rule:evenodd"
    clip-path="url(#presentation_clip_path)"
    sodipodi:docname="_svgclean2.svg"
    xml:space="preserve"
    viewBox="0 0 5505.9993 8432.6831"
    version="1.2"
    inkscape:version="0.91pre3 r13670"
  ><defs
      id="defs3"
    >
  <clipPath
        id="presentation_clip_path"
        clipPathUnits="userSpaceOnUse"
      >
   <rect
          id="rect7"
          y="0"
          x="0"
          height="19050"
          width="25400"
      />
  </clipPath
    >
  <font
        id="EmbeddedFont_1"
        horiz-origin-x="0"
        horiz-origin-y="0"
        horiz-adv-x="2048"
        vert-origin-x="45"
        vert-origin-y="90"
        vert-adv-y="90"
      >
   <font-face
          id="font-face12"
          font-family="Calibri embedded"
          ascent="1879"
          units-per-em="2048"
          descent="476"
      />
   <missing-glyph
          id="missing-glyph14"
          horiz-adv-x="2048"
          d="M 0,0 L 2047,0 2047,2047 0,2047 0,0 Z"
      />
   <glyph
          id="glyph16"
          horiz-adv-x="1086"
          unicode="x"
          d="M 1124,1120 L 719,575 1145,0 928,0 602,440 276,0 59,0 494,586 96,1120 313,1120 610,721 907,1120 1124,1120 Z"
      />
   <glyph
          id="glyph18"
          horiz-adv-x="1086"
          unicode="v"
          d="M 61,1120 L 256,1120 606,180 956,1120 1151,1120 731,0 481,0 61,1120 Z"
      />
   <glyph
          id="glyph20"
          horiz-adv-x="927"
          unicode="u"
          d="M 174,442 L 174,1120 358,1120 358,449 C 358,343 379,264 420,211 461,158 523,131 606,131 705,131 784,163 842,226 899,289 928,376 928,485 L 928,1120 1112,1120 1112,0 928,0 928,172 C 883,104 832,54 773,21 714,-12 645,-29 567,-29 438,-29 341,11 274,91 207,171 174,288 174,442 Z "
      />
   <glyph
          id="glyph22"
          horiz-adv-x="689"
          unicode="t"
          d="M 375,1438 L 375,1120 754,1120 754,977 375,977 375,369 C 375,278 388,219 413,193 438,167 488,154 565,154 L 754,154 754,0 565,0 C 423,0 325,27 271,80 217,133 190,229 190,369 L 190,977 55,977 55,1120 190,1120 190,1438 375,1438 Z"
      />
   <glyph
          id="glyph24"
          horiz-adv-x="663"
          unicode="r"
          d="M 842,948 C 821,960 799,969 775,975 750,980 723,983 694,983 590,983 510,949 455,882 399,814 371,717 371,590 L 371,0 186,0 186,1120 371,1120 371,946 C 410,1014 460,1065 522,1098 584,1131 659,1147 748,1147 761,1147 775,1146 790,1145 805,1143 822,1140 841,1137 L 842,948 Z"
      />
   <glyph
          id="glyph26"
          horiz-adv-x="1033"
          unicode="o"
          d="M 627,991 C 528,991 450,953 393,876 336,799 307,693 307,559 307,425 336,320 393,243 450,166 528,127 627,127 725,127 803,166 860,243 917,320 946,426 946,559 946,692 917,797 860,875 803,952 725,991 627,991 Z M 627,1147 C 787,1147 913,1095 1004,991 1095,887 1141,743 1141,559 1141,376 1095,232 1004,128 913,23 787,-29 627,-29 466,-29 341,23 250,128 159,232 113,376 113,559 113,743 159,887 250,991 341,1095 466,1147 627,1147 Z"
      />
   <glyph
          id="glyph28"
          horiz-adv-x="927"
          unicode="n"
          d="M 1124,676 L 1124,0 940,0 940,670 C 940,776 919,855 878,908 837,961 775,987 692,987 593,987 514,955 457,892 400,829 371,742 371,633 L 371,0 186,0 186,1120 371,1120 371,946 C 415,1013 467,1064 527,1097 586,1130 655,1147 733,1147 862,1147 959,1107 1025,1028 1091,948 1124,831 1124,676 Z"
      />
   <glyph
          id="glyph30"
          horiz-adv-x="1615"
          unicode="m"
          d="M 1065,905 C 1111,988 1166,1049 1230,1088 1294,1127 1369,1147 1456,1147 1573,1147 1663,1106 1726,1025 1789,943 1821,827 1821,676 L 1821,0 1636,0 1636,670 C 1636,777 1617,857 1579,909 1541,961 1483,987 1405,987 1310,987 1234,955 1179,892 1124,829 1096,742 1096,633 L 1096,0 911,0 911,670 C 911,778 892,858 854,910 816,961 757,987 678,987 584,987 509,955 454,892 399,828 371,742 371,633 L 371,0 186,0 186,1120 371,1120 371,946 C 413,1015 463,1065 522,1098 581,1131 650,1147 731,1147 812,1147 882,1126 939,1085 996,1044 1038,984 1065,905 Z"
      />
   <glyph
          id="glyph32"
          horiz-adv-x="186"
          unicode="l"
          d="M 193,1556 L 377,1556 377,0 193,0 193,1556 Z"
      />
   <glyph
          id="glyph34"
          horiz-adv-x="980"
          unicode="k"
          d="M 186,1556 L 371,1556 371,637 920,1120 1155,1120 561,596 1180,0 940,0 371,547 371,0 186,0 186,1556 Z"
      />
   <glyph
          id="glyph36"
          horiz-adv-x="186"
          unicode="i"
          d="M 193,1120 L 377,1120 377,0 193,0 193,1120 Z M 193,1556 L 377,1556 377,1323 193,1323 193,1556 Z"
      />
   <glyph
          id="glyph38"
          horiz-adv-x="927"
          unicode="h"
          d="M 1124,676 L 1124,0 940,0 940,670 C 940,776 919,855 878,908 837,961 775,987 692,987 593,987 514,955 457,892 400,829 371,742 371,633 L 371,0 186,0 186,1556 371,1556 371,946 C 415,1013 467,1064 527,1097 586,1130 655,1147 733,1147 862,1147 959,1107 1025,1028 1091,948 1124,831 1124,676 Z"
      />
   <glyph
          id="glyph40"
          horiz-adv-x="716"
          unicode="f"
          d="M 760,1556 L 760,1403 584,1403 C 518,1403 472,1390 447,1363 421,1336 408,1288 408,1219 L 408,1120 711,1120 711,977 408,977 408,0 223,0 223,977 47,977 47,1120 223,1120 223,1198 C 223,1323 252,1414 310,1471 368,1528 460,1556 586,1556 L 760,1556 Z"
      />
   <glyph
          id="glyph42"
          horiz-adv-x="1033"
          unicode="e"
          d="M 1151,606 L 1151,516 305,516 C 313,389 351,293 420,227 488,160 583,127 705,127 776,127 844,136 911,153 977,170 1043,196 1108,231 L 1108,57 C 1042,29 974,8 905,-7 836,-22 765,-29 694,-29 515,-29 374,23 270,127 165,231 113,372 113,549 113,732 163,878 262,986 361,1093 494,1147 662,1147 813,1147 932,1099 1020,1002 1107,905 1151,773 1151,606 Z M 967,659 C 966,760 938,841 883,901 828,961 755,991 664,991 561,991 479,962 418,904 356,846 320,764 311,659 L 967,659 Z"
      />
   <glyph
          id="glyph44"
          horiz-adv-x="1006"
          unicode="d"
          d="M 930,950 L 930,1556 1114,1556 1114,0 930,0 930,168 C 891,101 843,52 784,20 725,-13 654,-29 571,-29 436,-29 326,25 241,133 156,241 113,383 113,559 113,735 156,877 241,985 326,1093 436,1147 571,1147 654,1147 725,1131 784,1099 843,1066 891,1017 930,950 Z M 303,559 C 303,424 331,318 387,241 442,164 519,125 616,125 713,125 790,164 846,241 902,318 930,424 930,559 930,694 902,801 846,878 790,955 713,993 616,993 519,993 442,955 387,878 331,801 303,694 303,559 Z"
      />
   <glyph
          id="glyph46"
          horiz-adv-x="874"
          unicode="c"
          d="M 999,1077 L 999,905 C 947,934 895,955 843,970 790,984 737,991 684,991 565,991 472,953 406,878 340,802 307,696 307,559 307,422 340,316 406,241 472,165 565,127 684,127 737,127 790,134 843,149 895,163 947,184 999,213 L 999,43 C 948,19 895,1 840,-11 785,-23 726,-29 664,-29 495,-29 361,24 262,130 163,236 113,379 113,559 113,742 163,885 264,990 364,1095 501,1147 676,1147 733,1147 788,1141 842,1130 896,1118 948,1100 999,1077 Z"
      />
   <glyph
          id="glyph48"
          horiz-adv-x="1007"
          unicode="b"
          d="M 997,559 C 997,694 969,801 914,878 858,955 781,993 684,993 587,993 510,955 455,878 399,801 371,694 371,559 371,424 399,318 455,241 510,164 587,125 684,125 781,125 858,164 914,241 969,318 997,424 997,559 Z M 371,950 C 410,1017 459,1066 518,1099 577,1131 647,1147 729,1147 865,1147 976,1093 1061,985 1146,877 1188,735 1188,559 1188,383 1146,241 1061,133 976,25 865,-29 729,-29 647,-29 577,-13 518,20 459,52 410,101 371,168 L 371,0 186,0 186,1556 371,1556 371,950 Z"
      />
   <glyph
          id="glyph50"
          horiz-adv-x="953"
          unicode="a"
          d="M 702,563 C 553,563 450,546 393,512 336,478 307,420 307,338 307,273 329,221 372,183 415,144 473,125 547,125 649,125 731,161 793,234 854,306 885,402 885,522 L 885,563 702,563 Z M 1069,639 L 1069,0 885,0 885,170 C 843,102 791,52 728,20 665,-13 589,-29 498,-29 383,-29 292,3 225,68 157,132 123,218 123,326 123,452 165,547 250,611 334,675 460,707 627,707 L 885,707 885,725 C 885,810 857,875 802,922 746,968 668,991 567,991 503,991 441,983 380,968 319,953 261,930 205,899 L 205,1069 C 272,1095 338,1115 401,1128 464,1141 526,1147 586,1147 748,1147 869,1105 949,1021 1029,937 1069,810 1069,639 Z"
      />
   <glyph
          id="glyph52"
          horiz-adv-x="1271"
          unicode="T"
          d="M -6,1493 L 1257,1493 1257,1323 727,1323 727,0 524,0 524,1323 -6,1323 -6,1493 Z"
      />
   <glyph
          id="glyph54"
          horiz-adv-x="1060"
          unicode="S"
          d="M 1096,1444 L 1096,1247 C 1019,1284 947,1311 879,1329 811,1347 745,1356 682,1356 572,1356 487,1335 428,1292 368,1249 338,1189 338,1110 338,1044 358,994 398,961 437,927 512,900 623,879 L 745,854 C 896,825 1007,775 1079,703 1150,630 1186,533 1186,412 1186,267 1138,158 1041,83 944,8 801,-29 614,-29 543,-29 468,-21 389,-5 309,11 226,35 141,66 L 141,274 C 223,228 303,193 382,170 461,147 538,135 614,135 729,135 818,158 881,203 944,248 975,313 975,397 975,470 953,528 908,569 863,610 789,641 686,662 L 563,686 C 412,716 303,763 236,827 169,891 135,980 135,1094 135,1226 182,1330 275,1406 368,1482 496,1520 659,1520 729,1520 800,1514 873,1501 946,1488 1020,1469 1096,1444 Z"
      />
   <glyph
          id="glyph56"
          horiz-adv-x="1377"
          unicode="O"
          d="M 807,1356 C 660,1356 544,1301 458,1192 371,1083 328,934 328,745 328,557 371,408 458,299 544,190 660,135 807,135 954,135 1070,190 1156,299 1241,408 1284,557 1284,745 1284,934 1241,1083 1156,1192 1070,1301 954,1356 807,1356 Z M 807,1520 C 1016,1520 1184,1450 1309,1310 1434,1169 1497,981 1497,745 1497,510 1434,322 1309,182 1184,41 1016,-29 807,-29 597,-29 429,41 304,181 178,321 115,509 115,745 115,981 178,1169 304,1310 429,1450 597,1520 807,1520 Z"
      />
   <glyph
          id="glyph58"
          horiz-adv-x="927"
          unicode="L"
          d="M 201,1493 L 403,1493 403,170 1130,170 1130,0 201,0 201,1493 Z"
      />
   <glyph
          id="glyph60"
          horiz-adv-x="848"
          unicode="F"
          d="M 201,1493 L 1059,1493 1059,1323 403,1323 403,883 995,883 995,713 403,713 403,0 201,0 201,1493 Z"
      />
   <glyph
          id="glyph62"
          horiz-adv-x="1191"
          unicode="C"
          d="M 1319,1378 L 1319,1165 C 1251,1228 1179,1276 1102,1307 1025,1338 943,1354 856,1354 685,1354 555,1302 464,1198 373,1093 328,942 328,745 328,548 373,398 464,294 555,189 685,137 856,137 943,137 1025,153 1102,184 1179,215 1251,263 1319,326 L 1319,115 C 1248,67 1174,31 1095,7 1016,-17 932,-29 844,-29 618,-29 440,40 310,179 180,317 115,506 115,745 115,985 180,1174 310,1313 440,1451 618,1520 844,1520 933,1520 1018,1508 1097,1485 1176,1461 1250,1425 1319,1378 Z"
      />
   <glyph
          id="glyph64"
          horiz-adv-x="1271"
          unicode="&gt;"
          d="M 217,1008 L 217,1190 1499,725 1499,559 217,94 217,276 1247,641 217,1008 Z"
      />
   <glyph
          id="glyph66"
          horiz-adv-x="1271"
          unicode="&lt;"
          d="M 1499,1008 L 467,641 1499,276 1499,94 217,559 217,725 1499,1190 1499,1008 Z"
      />
   <glyph
          id="glyph68"
          horiz-adv-x="1086"
          unicode="4"
          d="M 774,1317 L 264,520 774,520 774,1317 Z M 721,1493 L 975,1493 975,520 1188,520 1188,352 975,352 975,0 774,0 774,352 100,352 100,547 721,1493 Z"
      />
   <glyph
          id="glyph70"
          horiz-adv-x="900"
          unicode="1"
          d="M 254,170 L 584,170 584,1309 225,1237 225,1421 582,1493 784,1493 784,170 1114,170 1114,0 254,0 254,170 Z"
      />
   <glyph
          id="glyph72"
          horiz-adv-x="689"
          unicode="/"
          d="M 520,1493 L 690,1493 170,-190 0,-190 520,1493 Z"
      />
   <glyph
          id="glyph74"
          horiz-adv-x="635"
          unicode=" "
      />
  </font
    >
  <font
        id="EmbeddedFont_2"
        horiz-origin-x="0"
        horiz-origin-y="0"
        horiz-adv-x="2048"
        vert-origin-x="45"
        vert-origin-y="90"
        vert-adv-y="90"
      >
   <font-face
          id="font-face79"
          font-family="StarSymbol embedded"
          ascent="1879"
          units-per-em="2048"
          descent="635"
      />
   <missing-glyph
          id="missing-glyph81"
          horiz-adv-x="2048"
          d="M 0,0 L 2047,0 2047,2047 0,2047 0,0 Z"
      />
   <glyph
          id="glyph83"
          horiz-adv-x="1191"
          unicode="●"
          d="M 813,0 C 632,0 489,54 383,161 276,268 223,411 223,592 223,773 276,916 383,1023 489,1130 632,1184 813,1184 992,1184 1136,1130 1245,1023 1353,916 1407,772 1407,592 1407,412 1353,268 1245,161 1136,54 992,0 813,0 Z"
      />
   <glyph
          id="glyph85"
          horiz-adv-x="1165"
          unicode="–"
          d="M -4,459 L 1135,459 1135,606 -4,606 -4,459 Z"
      />
  </font
    >
   </defs
  ><sodipodi:namedview
      id="namedview352"
      fit-margin-left="0"
      inkscape:zoom="0.010925926"
      borderopacity="1"
      inkscape:current-layer="svg2"
      inkscape:cx="-9379"
      inkscape:cy="-3790.0215"
      inkscape:window-maximized="0"
      showgrid="false"
      fit-margin-right="0"
      bordercolor="#666666"
      inkscape:window-x="0"
      guidetolerance="10"
      objecttolerance="10"
      inkscape:window-y="0"
      fit-margin-bottom="0"
      inkscape:window-width="718"
      inkscape:pageopacity="0"
      inkscape:pageshadow="2"
      pagecolor="#ffffff"
      gridtolerance="10"
      inkscape:window-height="645"
      fit-margin-top="0"
  />
 <g
      id="g154"
      class="SlideGroup"
      transform="translate(-9829 -6488.8)"
    >
  <g
        id="g156"
      >
   <g
          id="id1"
          clip-path="url(#presentation_clip_path)"
          class="Slide"
        >
    <g
            id="g159"
            class="Page"
          >
     <g
              id="g161"
              class="Group"
            >
      <g
                id="g163"
                class="Group"
              >
       <g
                  id="g173"
                  class="Group"
                >
        <g
                    id="g175"
                    class="com.sun.star.drawing.CustomShape"
                  >
         <g
                      id="id6"
                    >
          <path
                        id="path178"
                        style="fill:#fdeada"
                        inkscape:connector-curvature="0"
                        d="m11175 9227c-115-42-230-83-248-33-19 52 90 306 135 342 45 35 135-130 135-130l-22-179zm22-56zm-273 370z"
                    />
          <path
                        id="path180"
                        style="stroke-linejoin:round;stroke:#984807;stroke-width:71;fill:none"
                        inkscape:connector-curvature="0"
                        d="m11175 9227c-115-42-230-83-248-33-19 52 90 306 135 342 45 35 135-130 135-130"
                    />
          <path
                        id="path182"
                        style="stroke-linejoin:round;stroke:#984807;stroke-width:71;fill:none"
                        inkscape:connector-curvature="0"
                        d="m11197 9171z"
                    />
          <path
                        id="path184"
                        style="stroke-linejoin:round;stroke:#984807;stroke-width:71;fill:none"
                        inkscape:connector-curvature="0"
                        d="m10924 9541z"
                    />
         </g
                  >
        </g
                >
        <g
                    id="g186"
                    class="com.sun.star.drawing.CustomShape"
                  >
         <g
                      id="id7"
                    >
          <path
                        id="path189"
                        style="fill:#fdeada"
                        inkscape:connector-curvature="0"
                        d="m11165 8456h2450v1951h-2450v-1951zm2450 1951z"
                    />
          <path
                        id="path191"
                        style="stroke-linejoin:round;stroke:#984807;stroke-width:71;fill:none"
                        inkscape:connector-curvature="0"
                        d="m11165 8456h2450v1951h-2450v-1951z"
                    />
         </g
                  >
        </g
                >
        <g
                    id="g193"
                    class="Group"
                  >
         <g
                      id="g195"
                      class="com.sun.star.drawing.CustomShape"
                    >
          <g
                        id="id8"
                      >
           <path
                          id="path198"
                          style="fill:#000000"
                          inkscape:connector-curvature="0"
                          d="m12669 8790v-4l-1-3v-2l-1-2-1-2-1-2-1-2-1-2-2-2-1-2-2-2-2-1-2-2-2-2-2-1-2-2-3-1-2-1-3-1-3-1-2-1-3-1-3-1-3-1h-6l-3-1h-12l-3 1h-6l-3 1-3 1-3 1-2 1-3 1-3 1-2 1-3 1-2 2-2 1-2 2-2 2-2 1-2 2-1 2-2 2-1 2-1 2-1 2-1 2-1 2v2l-1 3v4h1v4l1 3v2l1 2 1 2 1 2 1 2 1 2 2 2 1 2 2 2 2 1 2 2 2 2 2 1 2 2 3 1 2 1 3 1 3 1 2 1 3 1 3 1 3 1h6l3 1h6v-1h6l3-1h6l3-1 3-1 3-1 2-1 3-1 3-1 2-1 3-1 2-2 2-1 2-2 2-2 2-1 2-2 1-2 2-2 1-2 1-2 1-2 1-2 1-2v-2l1-3v-4l-1 1zm0-42zm-117 85z"
                      />
           <path
                          id="path200"
                          style="stroke-linejoin:round;stroke:#000000;stroke-width:71;fill:none"
                          inkscape:connector-curvature="0"
                          d="m12669 8790v-4l-1-3v-2l-1-2-1-2-1-2-1-2-1-2-2-2-1-2-2-2-2-1-2-2-2-2-2-1-2-2-3-1-2-1-3-1-3-1-2-1-3-1-3-1-3-1h-6l-3-1h-12l-3 1h-6l-3 1-3 1-3 1-2 1-3 1-3 1-2 1-3 1-2 2-2 1-2 2-2 2-2 1-2 2-1 2-2 2-1 2-1 2-1 2-1 2-1 2v2l-1 3v4h1v4l1 3v2l1 2 1 2 1 2 1 2 1 2 2 2 1 2 2 2 2 1 2 2 2 2 2 1 2 2 3 1 2 1 3 1 3 1 2 1 3 1 3 1 3 1h6l3 1h6v-1h6l3-1h6l3-1 3-1 3-1 2-1 3-1 3-1 2-1 3-1 2-2 2-1 2-2 2-2 2-1 2-2 1-2 2-2 1-2 1-2 1-2 1-2 1-2v-2l1-3v-4l-1 1z"
                      />
          </g
                    >
         </g
                  >
         <g
                      id="g202"
                      class="com.sun.star.drawing.CustomShape"
                    >
          <g
                        id="id9"
                      >
           <path
                          id="path205"
                          style="fill:#000000"
                          inkscape:connector-curvature="0"
                          d="m12083 8959v-4l-1-3v-2l-1-2-1-2-1-2-1-2-1-2-2-2-1-2-2-2-2-1-2-2-2-2-2-1-2-2-3-1-2-1-3-1-3-1-2-1-3-1-3-1-3-1h-6l-3-1h-12l-3 1h-6l-3 1-3 1-3 1-2 1-3 1-3 1-2 1-3 1-2 2-2 1-2 2-2 2-2 1-2 2-1 2-2 2-1 2-1 2-1 2-1 2-1 2v2l-1 3v4h1v4l1 3v2l1 2 1 2 1 2 1 2 1 2 2 2 1 2 2 2 2 1 2 2 2 2 2 1 2 2 3 1 2 1 3 1 3 1 2 1 3 1 3 1 3 1h6l3 1h6v-1h6l3-1h6l3-1 3-1 3-1 2-1 3-1 3-1 2-1 3-1 2-2 2-1 2-2 2-2 2-1 2-2 1-2 2-2 1-2 1-2 1-2 1-2 1-2v-2l1-3v-4l-1 1zm0-42zm-117 85z"
                      />
           <path
                          id="path207"
                          style="stroke-linejoin:round;stroke:#000000;stroke-width:71;fill:none"
                          inkscape:connector-curvature="0"
                          d="m12083 8959v-4l-1-3v-2l-1-2-1-2-1-2-1-2-1-2-2-2-1-2-2-2-2-1-2-2-2-2-2-1-2-2-3-1-2-1-3-1-3-1-2-1-3-1-3-1-3-1h-6l-3-1h-12l-3 1h-6l-3 1-3 1-3 1-2 1-3 1-3 1-2 1-3 1-2 2-2 1-2 2-2 2-2 1-2 2-1 2-2 2-1 2-1 2-1 2-1 2-1 2v2l-1 3v4h1v4l1 3v2l1 2 1 2 1 2 1 2 1 2 2 2 1 2 2 2 2 1 2 2 2 2 2 1 2 2 3 1 2 1 3 1 3 1 2 1 3 1 3 1 3 1h6l3 1h6v-1h6l3-1h6l3-1 3-1 3-1 2-1 3-1 3-1 2-1 3-1 2-2 2-1 2-2 2-2 2-1 2-2 1-2 2-2 1-2 1-2 1-2 1-2 1-2v-2l1-3v-4l-1 1z"
                      />
          </g
                    >
         </g
                  >
        </g
                >
        <g
                    id="g209"
                    class="com.sun.star.drawing.CustomShape"
                  >
         <g
                      id="id10"
                    >
          <path
                        id="path212"
                        style="fill:#fdeada"
                        inkscape:connector-curvature="0"
                        d="m15050 12680 13-18 14-18 10-19 11-19 9-20 8-20 6-20 5-20 4-22 2-20 2-21v-21l-2-21-3-21-4-21-5-20-6-21-8-19-9-20-11-19-11-19-13-18-14-19-15-16-16-17-17-16-18-16-19-14-20-14-21-13-21-12-22-11-23-10-24-10-23-8-25-8-26-6-24-6-26-4-26-3-27-3-25-2h-26l-27 1-26 2-26 3-26 4-26 4-25 6-25 7-24 8-23 9-25 10-22 10-22 12-21 13-20 13-19 14-20 14-17 17-16 16-16 16-15 18-13 18-12 18-11 19-10 20-9 19-6 20-6 21-6 20-3 21-2 21v21l-1 21 3 20 3 21 4 21 6 20 7 21 8 19 10 20 10 19 12 19 14 18 14 18 15 17 16 16 17 16 18 15 20 14 19 14 22 12 22 12 285-350 441 227zm-1167-103zm1452-249z"
                    />
          <path
                        id="path214"
                        style="stroke-linejoin:round;stroke:#984807;stroke-width:71;fill:none"
                        inkscape:connector-curvature="0"
                        d="m15050 12680 13-18 14-18 10-19 11-19 9-20 8-20 6-20 5-20 4-22 2-20 2-21v-21l-2-21-3-21-4-21-5-20-6-21-8-19-9-20-11-19-11-19-13-18-14-19-15-16-16-17-17-16-18-16-19-14-20-14-21-13-21-12-22-11-23-10-24-10-23-8-25-8-26-6-24-6-26-4-26-3-27-3-25-2h-26l-27 1-26 2-26 3-26 4-26 4-25 6-25 7-24 8-23 9-25 10-22 10-22 12-21 13-20 13-19 14-20 14-17 17-16 16-16 16-15 18-13 18-12 18-11 19-10 20-9 19-6 20-6 21-6 20-3 21-2 21v21l-1 21 3 20 3 21 4 21 6 20 7 21 8 19 10 20 10 19 12 19 14 18 14 18 15 17 16 16 17 16 18 15 20 14 19 14 22 12 22 12 285-350 441 227z"
                    />
         </g
                  >
        </g
                >
        <g
                    id="g216"
                    class="com.sun.star.drawing.CustomShape"
                  >
         <g
                      id="id11"
                    >
          <path
                        id="path219"
                        style="fill:#fdeada"
                        inkscape:connector-curvature="0"
                        d="m12402 9282 3-20 7-20 8-18 10-18 12-17 15-17 17-15 18-15 22-13 22-12 26-11 26-11 28-9 31-9 32-6 32-6 35-5 36-3 37-2 39-1h39l41 2 41 2 42 4 42 5 43 6 43 8 43 8 44 11 44 10 43 13 44 12 42 14 43 14 41 16 41 17 41 18 38 18 39 19 38 20 35 21 34 20 34 21 31 23 29 22 29 22 27 23 24 23 22 23 21 24 18 23 18 23 14 23 12 23 10 23 8 22 5 22 3 22 2 22-2 20h-1l-3 19-7 21-8 18-10 18-12 17-15 16-17 16-18 14-22 13-22 13-26 11-26 11-28 9-31 8-32 7-32 6-35 5-36 3-37 2-38 1h-40l-41-2-41-3-42-4-42-4-43-6-43-9-43-8-44-10-44-10v-1l-43-13-43-12-43-14-43-15-41-16-41-16-40-18-39-19-39-18-36-20-37-21-34-20-34-21-31-23-29-22-28-22-28-23-24-23-22-24-21-23-18-23-17-23-15-24-12-22-10-24-7-21-6-22-3-22-1-22 1-20 1 1zm47-389zm1569 1213z"
                    />
          <path
                        id="path221"
                        style="stroke-linejoin:round;stroke:#984807;stroke-width:71;fill:none"
                        inkscape:connector-curvature="0"
                        d="m12402 9282 3-20 7-20 8-18 10-18 12-17 15-17 17-15 18-15 22-13 22-12 26-11 26-11 28-9 31-9 32-6 32-6 35-5 36-3 37-2 39-1h39l41 2 41 2 42 4 42 5 43 6 43 8 43 8 44 11 44 10 43 13 44 12 42 14 43 14 41 16 41 17 41 18 38 18 39 19 38 20 35 21 34 20 34 21 31 23 29 22 29 22 27 23 24 23 22 23 21 24 18 23 18 23 14 23 12 23 10 23 8 22 5 22 3 22 2 22-2 20h-1l-3 19-7 21-8 18-10 18-12 17-15 16-17 16-18 14-22 13-22 13-26 11-26 11-28 9-31 8-32 7-32 6-35 5-36 3-37 2-38 1h-40l-41-2-41-3-42-4-42-4-43-6-43-9-43-8-44-10-44-10v-1l-43-13-43-12-43-14-43-15-41-16-41-16-40-18-39-19-39-18-36-20-37-21-34-20-34-21-31-23-29-22-28-22-28-23-24-23-22-24-21-23-18-23-17-23-15-24-12-22-10-24-7-21-6-22-3-22-1-22 1-20 1 1z"
                    />
         </g
                  >
        </g
                >
        <g
                    id="g223"
                    class="com.sun.star.drawing.CustomShape"
                  >
         <g
                      id="id12"
                    >
          <path
                        id="path226"
                        style="fill:#fdeada"
                        inkscape:connector-curvature="0"
                        d="m9949 12679-5-22-5-22-3-24-2-23-2-24 1-24 1-25 3-23 4-26 5-24 5-24 7-25 9-25 9-23 10-25 11-23 12-23 13-23 14-22 16-21 15-22 17-20 18-20 17-18 19-19 20-17 20-17 20-14 21-15 22-13 21-12 22-12 23-9 23-10 22-8 24-6 23-5 22-5 23-3 22-1 23-1h22l22 3 22 3 20 4 21 6 20 7 21 7 19 10 17 9 18 13 17 12 16 13 15 14 15 16 13 17 13 17 11 18 11 19 9 20 8 21 8 20 6 22 5 22 4 23 3 23 1 24 1 23-1 25-1 24-3 25-4 24-6 25-6 24-6 25-9 24-10 24-10 24-12 23-12 23-13 23-15 22-15 21-16 21-17 20-18 20-18 19-19 17-20 17-20 16-21 15-20 14-22 12-22 13-121-435-441 227zm1002-19zm-1122-417z"
                    />
          <path
                        id="path228"
                        style="stroke-linejoin:round;stroke:#984807;stroke-width:71;fill:none"
                        inkscape:connector-curvature="0"
                        d="m9949 12679-5-22-5-22-3-24-2-23-2-24 1-24 1-25 3-23 4-26 5-24 5-24 7-25 9-25 9-23 10-25 11-23 12-23 13-23 14-22 16-21 15-22 17-20 18-20 17-18 19-19 20-17 20-17 20-14 21-15 22-13 21-12 22-12 23-9 23-10 22-8 24-6 23-5 22-5 23-3 22-1 23-1h22l22 3 22 3 20 4 21 6 20 7 21 7 19 10 17 9 18 13 17 12 16 13 15 14 15 16 13 17 13 17 11 18 11 19 9 20 8 21 8 20 6 22 5 22 4 23 3 23 1 24 1 23-1 25-1 24-3 25-4 24-6 25-6 24-6 25-9 24-10 24-10 24-12 23-12 23-13 23-15 22-15 21-16 21-17 20-18 20-18 19-19 17-20 17-20 16-21 15-20 14-22 12-22 13-121-435-441 227z"
                    />
         </g
                  >
        </g
                >
        <g
                    id="g230"
                    class="com.sun.star.drawing.CustomShape"
                  >
         <g
                      id="id13"
                    >
          <path
                        id="path233"
                        style="fill:#000000"
                        inkscape:connector-curvature="0"
                        d="m11099 8104h2450v279h-2450v-279zm2450 279z"
                    />
          <path
                        id="path235"
                        style="stroke-linejoin:round;stroke:#000000;stroke-width:71;fill:none"
                        inkscape:connector-curvature="0"
                        d="m11099 8104h2450v279h-2450v-279z"
                    />
         </g
                  >
        </g
                >
        <g
                    id="g237"
                    class="com.sun.star.drawing.CustomShape"
                  >
         <g
                      id="id14"
                    >
          <path
                        id="path240"
                        style="fill:#262626"
                        inkscape:connector-curvature="0"
                        d="m11016 8085c25-720 50-1440 269-1529 219-88 763 997 1044 992 281-4 438-1112 640-1019 202 94 387 838 573 1582l-2526-26zm0-1561zm2526 1588z"
                    />
          <path
                        id="path242"
                        style="stroke-linejoin:round;stroke:#000000;stroke-width:71;fill:none"
                        inkscape:connector-curvature="0"
                        d="m11016 8085c25-720 50-1440 269-1529 219-88 763 997 1044 992 281-4 438-1112 640-1019 202 94 387 838 573 1582"
                    />
          <path
                        id="path244"
                        style="stroke-linejoin:round;stroke:#000000;stroke-width:71;fill:none"
                        inkscape:connector-curvature="0"
                        d="m11016 6524z"
                    />
          <path
                        id="path246"
                        style="stroke-linejoin:round;stroke:#000000;stroke-width:71;fill:none"
                        inkscape:connector-curvature="0"
                        d="m13542 8112z"
                    />
         </g
                  >
        </g
                >
        <g
                    id="g248"
                    class="com.sun.star.drawing.CustomShape"
                  >
         <g
                      id="id15"
                    >
          <path
                        id="path251"
                        style="fill:#262626"
                        inkscape:connector-curvature="0"
                        d="m14291 10367c-206-39-389 49-441 203l-8-2-6 70-136 1621 850 161 136-1621 6-70-8-1c-26-169-188-322-393-361zm424 81zm-1016 1812z"
                    />
          <path
                        id="path253"
                        style="stroke-linejoin:round;stroke:#000000;stroke-width:71;fill:none"
                        inkscape:connector-curvature="0"
                        d="m14291 10367c-206-39-389 49-441 203l-8-2-6 70-136 1621 850 161 136-1621 6-70-8-1c-26-169-188-322-393-361z"
                    />
         </g
                  >
        </g
                >
        <g
                    id="g255"
                    class="com.sun.star.drawing.CustomShape"
                  >
         <g
                      id="id16"
                    >
          <path
                        id="path258"
                        style="fill:#262626"
                        inkscape:connector-curvature="0"
                        d="m10840 10366c206 39 368 192 394 361l8 1-6 70-137 1621-849-161 136-1621 6-70 8 2c53-154 235-242 440-203zm-424-80zm684 2134z"
                    />
          <path
                        id="path260"
                        style="stroke-linejoin:round;stroke:#000000;stroke-width:71;fill:none"
                        inkscape:connector-curvature="0"
                        d="m10840 10366c206 39 368 192 394 361l8 1-6 70-137 1621-849-161 136-1621 6-70 8 2c53-154 235-242 440-203z"
                    />
         </g
                  >
        </g
                >
        <g
                    id="g262"
                    class="com.sun.star.drawing.CustomShape"
                  >
         <g
                      id="id17"
                    >
          <path
                        id="path265"
                        style="fill:#262626"
                        inkscape:connector-curvature="0"
                        d="m10898 10425h3150v2090h-3150v-2090zm3150 2090z"
                    />
          <path
                        id="path267"
                        style="stroke-linejoin:round;stroke:#000000;stroke-width:71;fill:none"
                        inkscape:connector-curvature="0"
                        d="m10898 10425h3150v2090h-3150v-2090z"
                    />
         </g
                  >
        </g
                >
        <g
                    id="g269"
                    class="com.sun.star.drawing.CustomShape"
                  >
         <g
                      id="id18"
                    >
          <path
                        id="path272"
                        style="fill:#ffffff"
                        inkscape:connector-curvature="0"
                        d="m13524 10426-1050 1951-1050-1951h2100zm0 1951zm-2100-1951z"
                    />
          <path
                        id="path274"
                        style="stroke-linejoin:round;stroke:#000000;stroke-width:71;fill:none"
                        inkscape:connector-curvature="0"
                        d="m13524 10426-1050 1951-1050-1951h2100z"
                    />
         </g
                  >
        </g
                >
        <g
                    id="g276"
                    class="com.sun.star.drawing.CustomShape"
                  >
         <g
                      id="id19"
                    >
          <path
                        id="path279"
                        style="stroke-linejoin:round;stroke:#000000;stroke-width:71;fill:none"
                        inkscape:connector-curvature="0"
                        d="m11240 10425c-188 138-375 276-336 375 39 98 522 40 572 214 51 174-415 617-269 831 146 215 960 375 1145 456 185 80 76 53-34 27"
                    />
          <path
                        id="path281"
                        style="stroke-linejoin:round;stroke:#000000;stroke-width:71;fill:none"
                        inkscape:connector-curvature="0"
                        d="m10899 10425z"
                    />
          <path
                        id="path283"
                        style="stroke-linejoin:round;stroke:#000000;stroke-width:71;fill:none"
                        inkscape:connector-curvature="0"
                        d="m12452 12355z"
                    />
         </g
                  >
        </g
                >
        <g
                    id="g285"
                    class="com.sun.star.drawing.LineShape"
                  >
         <g
                      id="id20"
                    >
          <path
                        id="path288"
                        style="stroke-linejoin:round;stroke:#000000;stroke-width:106;fill:none"
                        inkscape:connector-curvature="0"
                        d="m10400 8382h4025"
                    />
         </g
                  >
        </g
                >
        <g
                    id="g290"
                    class="com.sun.star.drawing.CustomShape"
                  >
         <g
                      id="id21"
                    >
          <path
                        id="path293"
                        style="stroke-linejoin:round;stroke:#000000;stroke-width:71;fill:none"
                        inkscape:connector-curvature="0"
                        d="m13685 10425c188 138 375 276 336 375-39 98-522 40-572 214-51 174 415 617 269 831-146 215-960 375-1145 456-185 80-76 53 34 27"
                    />
          <path
                        id="path295"
                        style="stroke-linejoin:round;stroke:#000000;stroke-width:71;fill:none"
                        inkscape:connector-curvature="0"
                        d="m14026 10425z"
                    />
          <path
                        id="path297"
                        style="stroke-linejoin:round;stroke:#000000;stroke-width:71;fill:none"
                        inkscape:connector-curvature="0"
                        d="m12473 12355z"
                    />
         </g
                  >
        </g
                >
        <g
                    id="g299"
                    class="com.sun.star.drawing.CustomShape"
                  >
         <g
                      id="id22"
                    >
          <path
                        id="path302"
                        style="fill:#ff0000"
                        inkscape:connector-curvature="0"
                        d="m12846 10471v-5l-2-5-2-5-3-6-4-5-5-5-6-4-7-5-8-5-8-4-9-5-10-4-11-4-12-4-12-4-12-3-14-4-14-3-14-3-15-3-16-2-16-2-16-2-17-2-17-2-17-1-17-1h-18l-17-1h-36l-17 1h-18l-17 1-17 1-17 2-17 2-16 2-16 2-16 2-15 3-14 3-14 3-13 3-13 4-12 4-12 4-11 4-10 4-9 5-8 4-8 5-7 5-6 4-5 5-4 5-3 6-2 5-2 5v10l2 5 2 5 3 6 5 5 5 5 5 4 7 5 8 5 8 4 10 5 10 4 10 4 12 4 12 4 13 4 13 3 14 3 15 3 15 3 16 2 16 2 16 2 17 2 17 2 17 1 17 1h18l17 1h18v-1h34l17-1 17-1 17-1 16-1 16-2 16-2 16-2 15-2 15-3 14-3 14-3 13-3 13-3 12-4 11-3 11-4 10-4 10-5 8-4 8-4 8-5 6-5 5-4 5-5 4-5 3-5 2-5 2-5v-5l-2 1zm0-99zm-676 199z"
                    />
          <path
                        id="path304"
                        style="stroke-linejoin:round;stroke:#000000;stroke-width:71;fill:none"
                        inkscape:connector-curvature="0"
                        d="m12846 10471v-5l-2-5-2-5-3-6-4-5-5-5-6-4-7-5-8-5-8-4-9-5-10-4-11-4-12-4-12-4-12-3-14-4-14-3-14-3-15-3-16-2-16-2-16-2-17-2-17-2-17-1-17-1h-18l-17-1h-36l-17 1h-18l-17 1-17 1-17 2-17 2-16 2-16 2-16 2-15 3-14 3-14 3-13 3-13 4-12 4-12 4-11 4-10 4-9 5-8 4-8 5-7 5-6 4-5 5-4 5-3 6-2 5-2 5v10l2 5 2 5 3 6 5 5 5 5 5 4 7 5 8 5 8 4 10 5 10 4 10 4 12 4 12 4 13 4 13 3 14 3 15 3 15 3 16 2 16 2 16 2 17 2 17 2 17 1 17 1h18l17 1h18v-1h34l17-1 17-1 17-1 16-1 16-2 16-2 16-2 15-2 15-3 14-3 14-3 13-3 13-3 12-4 11-3 11-4 10-4 10-5 8-4 8-4 8-5 6-5 5-4 5-5 4-5 3-5 2-5 2-5v-5l-2 1z"
                    />
         </g
                  >
        </g
                >
        <g
                    id="g306"
                    class="com.sun.star.drawing.CustomShape"
                  >
         <g
                      id="id23"
                    >
          <path
                        id="path309"
                        style="fill:#ff0000"
                        inkscape:connector-curvature="0"
                        d="m12730 10585c152 180 302 361 260 613-43 252-347 913-520 900-174-12-499-721-521-977-22-255 184-405 390-555l391 19zm267-19zm-1050 1533z"
                    />
          <path
                        id="path311"
                        style="stroke-linejoin:round;stroke:#000000;stroke-width:71;fill:none"
                        inkscape:connector-curvature="0"
                        d="m12730 10585c152 180 302 361 260 613-43 252-347 913-520 900-174-12-499-721-521-977-22-255 184-405 390-555"
                    />
          <path
                        id="path313"
                        style="stroke-linejoin:round;stroke:#000000;stroke-width:71;fill:none"
                        inkscape:connector-curvature="0"
                        d="m12997 10566z"
                    />
          <path
                        id="path315"
                        style="stroke-linejoin:round;stroke:#000000;stroke-width:71;fill:none"
                        inkscape:connector-curvature="0"
                        d="m11947 12099z"
                    />
         </g
                  >
        </g
                >
        <g
                    id="g317"
                    class="com.sun.star.drawing.CustomShape"
                  >
         <g
                      id="id24"
                    >
          <path
                        id="path320"
                        style="fill:#262626"
                        inkscape:connector-curvature="0"
                        d="m11248 12517h1050v2369h-1050v-2369zm1050 2369z"
                    />
          <path
                        id="path322"
                        style="stroke-linejoin:round;stroke:#000000;stroke-width:71;fill:none"
                        inkscape:connector-curvature="0"
                        d="m11248 12517h1050v2369h-1050v-2369z"
                    />
         </g
                  >
        </g
                >
        <g
                    id="g324"
                    class="com.sun.star.drawing.CustomShape"
                  >
         <g
                      id="id25"
                    >
          <path
                        id="path327"
                        style="fill:#262626"
                        inkscape:connector-curvature="0"
                        d="m12648 12517h1050v2369h-1050v-2369zm1050 2369z"
                    />
          <path
                        id="path329"
                        style="stroke-linejoin:round;stroke:#000000;stroke-width:71;fill:none"
                        inkscape:connector-curvature="0"
                        d="m12648 12517h1050v2369h-1050v-2369z"
                    />
         </g
                  >
        </g
                >
       </g
              >
      </g
            >
      <g
                id="g331"
                class="com.sun.star.drawing.CustomShape"
              >
       <g
                  id="id26"
                >
        <path
                    id="path334"
                    style="stroke-linejoin:round;stroke:#000000;stroke-width:71;fill:none"
                    inkscape:connector-curvature="0"
                    d="m11621 10198c202-240 404-481 615-500 212-18 655 385 655 385"
                />
        <path
                    id="path336"
                    style="stroke-linejoin:round;stroke:#000000;stroke-width:71;fill:none"
                    inkscape:connector-curvature="0"
                    d="m11621 9698z"
                />
        <path
                    id="path338"
                    style="stroke-linejoin:round;stroke:#000000;stroke-width:71;fill:none"
                    inkscape:connector-curvature="0"
                    d="m12891 10199z"
                />
       </g
              >
      </g
            >
      <g
                id="g340"
                class="com.sun.star.drawing.LineShape"
              >
       <g
                  id="id27"
                >
        <path
                    id="path343"
                    style="stroke-linejoin:round;stroke:#000000;stroke-width:26;fill:none"
                    inkscape:connector-curvature="0"
                    d="m12390 8455 710 269"
                />
       </g
              >
      </g
            >
      <g
                id="g345"
                class="com.sun.star.drawing.LineShape"
              >
       <g
                  id="id28"
                >
        <path
                    id="path348"
                    style="stroke-linejoin:round;stroke:#000000;stroke-width:26;fill:none"
                    inkscape:connector-curvature="0"
                    d="m12209 8524-710 270"
                />
       </g
              >
      </g
            >
     </g
          >
    </g
        >
   </g
      >
  </g
    >
 </g
  >
<metadata
      id="metadata151"
    ><rdf:RDF
      ><cc:Work
        ><dc:format
          >image/svg+xml</dc:format
        ><dc:type
            rdf:resource="http://purl.org/dc/dcmitype/StillImage"
        /><cc:license
            rdf:resource="http://creativecommons.org/licenses/publicdomain/"
        /><dc:publisher
          ><cc:Agent
              rdf:about="http://openclipart.org/"
            ><dc:title
              >Openclipart</dc:title
            ></cc:Agent
          ></dc:publisher
        ></cc:Work
      ><cc:License
          rdf:about="http://creativecommons.org/licenses/publicdomain/"
        ><cc:permits
            rdf:resource="http://creativecommons.org/ns#Reproduction"
        /><cc:permits
            rdf:resource="http://creativecommons.org/ns#Distribution"
        /><cc:permits
            rdf:resource="http://creativecommons.org/ns#DerivativeWorks"
        /></cc:License
      ></rdf:RDF
    ></metadata
  ></svg
>
</font>
</defs>
</svg>
